<?xml version="1.0" standalone="no"?>
<!DOCTYPE svg PUBLIC "-//W3C//DTD SVG 1.1//EN" "http://www.w3.org/Graphics/SVG/1.1/DTD/svg11.dtd" >
<svg xmlns="http://www.w3.org/2000/svg">
<metadata>
Created by FontPrep 20130207 at Thu Mar 20 11:07:56 2014
 By Olivier van Helden
(c) Copyright 1995-1997 International Typeface Corporation  All rights reserved.
</metadata>
<defs>
<font id="e7d5e4e814d757efeb762208b57087a1" horiz-adv-x='1024' >
  <font-face 
    font-family="BlairITCTTBold"
    font-weight="700"
    font-stretch="normal"
    units-per-em="2048"
    panose-1="0 0 7 0 0 0 0 0 0 0"
    ascent="1638"
    descent="-410"
    x-height="1260"
    cap-height="1483"
    bbox="-545 -483 3432 2013"
    underline-thickness="284"
    underline-position="-98"
    unicode-range="U+0020-F002"
  />
<missing-glyph 
d="M256 129h512v1323h-512v-1323zM129 0v1579h768v-1579h-768z" />
    <glyph glyph-name=".notdef" 
d="M256 129h512v1323h-512v-1323zM129 0v1579h768v-1579h-768z" />
    <glyph glyph-name=".null" horiz-adv-x="0" 
 />
    <glyph glyph-name="nonmarkingreturn" horiz-adv-x="614" 
 />
    <glyph glyph-name="space" unicode=" " horiz-adv-x="614" 
 />
    <glyph glyph-name="exclam" unicode="!" horiz-adv-x="849" 
d="M612 0h-376v285h376v-285zM205 1483h440v-166l-121 -926h-200l-119 926v166z" />
    <glyph glyph-name="quotedbl" unicode="&#x22;" horiz-adv-x="677" 
d="M406 1438h192v-559h-192v559zM80 1438h192v-559h-192v559z" />
    <glyph glyph-name="numbersign" unicode="#" horiz-adv-x="1697" 
d="M971 963h-238l-35 -218h238zM1489 963h-201l-37 -218h146v-276h-197l-51 -295h-315l53 295h-238l-53 -295h-311l49 295h-152v276h201l37 218h-152v276h199l43 242h309l-41 -242h238l43 242h315l-43 -242h158v-276z" />
    <glyph glyph-name="dollar" unicode="$" horiz-adv-x="2060" 
d="M557 1065q0 -109 295 -127v270q-295 -27 -295 -143zM1169 602v-336q360 35 361 199q0 137 -361 137zM1169 -135h-317v121q-403 33 -739 264l194 237q252 -160 545 -208v335q-666 53 -666 420q0 197 170 316.5t496 146.5v86h317v-88q438 -37 684 -209l-200 -233
q-225 127 -484 155v-286q737 -33 738 -443q0 -223 -187.5 -352t-550.5 -150v-112z" />
    <glyph glyph-name="percent" unicode="%" horiz-adv-x="2342" 
d="M750 1112q0 64 -48.5 109t-118 45t-117.5 -46t-48 -108t48 -108t117.5 -46t118 45t48.5 109zM1925 372q0 62 -49 108t-118 46t-117 -46t-48 -109.5t47.5 -107.5t117.5 -44t118.5 45.5t48.5 107.5zM1024 1113q0 -169 -127 -285.5t-313.5 -116.5t-313.5 116.5t-127 282.5
q0 129 78 229q133 174 363 174q174 0 307 -115.5t133 -284.5zM2015 1483l-1323 -1503h-364l1325 1503h362zM1757 774q175 0 309 -116t134 -284q0 -169 -128 -286t-308 -117t-313 114q-132 114 -132 286q0 127 78 229q131 174 360 174z" />
    <glyph glyph-name="ampersand" unicode="&#x26;" horiz-adv-x="2029" 
d="M426 428q0 -164 326 -164q133 1 301 64q-158 141 -289 303q-338 -49 -338 -203zM1122 1106q0 49 -34 81t-92 32t-98 -40t-40 -99.5t49 -137.5q215 29 215 164zM90 436q0 311 488 445q-52 99 -52 219t88 225q145 174 394 174q197 0 319.5 -109.5t122.5 -281.5
q0 -276 -350 -401q94 -109 217 -209q125 137 180 315h344q-82 -266 -266 -477q145 -41 289 -41h20v-299q-307 10 -579 133q-330 -149 -599 -149t-442.5 132t-173.5 324z" />
    <glyph glyph-name="quotesingle" unicode="'" horiz-adv-x="352" 
d="M80 1438h192v-559h-192v559z" />
    <glyph glyph-name="parenleft" unicode="(" horiz-adv-x="1028" 
d="M178 663q0 429 223 711q178 225 506 250v-139q-174 -2 -273 -214t-99 -608t96 -603t276 -210v-139q-330 25 -506 244q-223 279 -223 708z" />
    <glyph glyph-name="parenright" unicode=")" horiz-adv-x="1028" 
d="M479 663.5q0 395.5 -99 607.5t-274 214v139q326 -25 506 -250q224 -282 224 -712t-224 -707q-178 -219 -506 -244v139q178 2 275.5 210t97.5 603.5z" />
    <glyph glyph-name="asterisk" unicode="*" horiz-adv-x="1259" 
d="M1118 1047l-340 -64l219 -250l-211 -141l-176 287l-176 -287l-209 141l219 250l-340 64l80 229l314 -113l-39 320h305l-39 -320l313 113z" />
    <glyph glyph-name="plus" unicode="+" horiz-adv-x="929" 
d="M676 0h-361v907l-204 -78v316q115 35 204 115h361v-1260z" />
    <glyph glyph-name="comma" unicode="," horiz-adv-x="786" 
d="M582 -63q0 -248 -283 -248h-86v170h23q145 0 145 75v66h-176v285h377v-348z" />
    <glyph glyph-name="hyphen" unicode="-" horiz-adv-x="1187" 
d="M1044 485h-901v285h901v-285z" />
    <glyph glyph-name="hyphen" unicode="&#x2010;" horiz-adv-x="1187" 
d="M1044 485h-901v285h901v-285z" />
    <glyph glyph-name="period" unicode="." horiz-adv-x="786" 
d="M582 0h-377v285h377v-285z" />
    <glyph glyph-name="slash" unicode="/" horiz-adv-x="1220" 
d="M1202 1483l-948 -1503h-365l951 1503h362z" />
    <glyph glyph-name="zero" unicode="0" horiz-adv-x="1968" 
d="M1475 737q0 209 -137.5 344.5t-353.5 135.5t-353 -134.5t-137 -345.5t137 -344t353 -133t353.5 134t137.5 343zM1802 734q0 -239 -145 -433q-117 -158 -292 -244t-380 -86q-424 0 -674 332q-145 193 -145 431t145 433q119 160 294 247t378 87t378 -87t294 -245
q147 -196 147 -435z" />
    <glyph glyph-name="one" unicode="1" horiz-adv-x="911" 
d="M666 0h-359v1122l-237 -94v322q131 39 235 133h361v-1483z" />
    <glyph glyph-name="two" unicode="2" horiz-adv-x="1812" 
d="M1636 0h-1589q27 580 621 764q213 59 426 119q156 53 155 141q0 188 -356 188q-313 0 -582 -211l-215 216q389 285 801 284q313 0 507.5 -137t194.5 -350q0 -170 -111.5 -267.5t-354.5 -160.5q-352 -92 -396 -107q-190 -70 -288 -194h1187v-285z" />
    <glyph glyph-name="three" unicode="3" horiz-adv-x="1875" 
d="M1694 444q0 -222 -203 -344.5t-580 -122.5q-504 0 -868 326l211 197q252 -244 674 -244t422 197q0 92 -113 127q-100 33 -338 32h-258v281h311q330 0 330 156q0 74 -106.5 118.5t-294.5 44.5q-285 0 -545 -133l-139 221q317 201 723 201q326 0 513 -117
q187 -118 187 -308t-180 -300v-6q254 -104 254 -326z" />
    <glyph glyph-name="four" unicode="4" horiz-adv-x="1763" 
d="M1020 559v569l-604 -569h604zM1696 274h-316v-274h-360v274h-977v283l977 926h360v-924h316v-285z" />
    <glyph glyph-name="five" unicode="5" horiz-adv-x="1875" 
d="M938 983q350 0 555 -136.5t205 -360.5t-207 -366.5t-555 -142.5q-510 0 -885 330l258 168q274 -217 623 -217q209 0 320.5 60.5t111.5 170.5q0 221 -492 222q-287 0 -487 -101l-276 140l239 733h1239v-285h-1014l-114 -297q193 82 479 82z" />
    <glyph glyph-name="six" unicode="6" horiz-adv-x="1925" 
d="M1032 260q195 0 300.5 52.5t105.5 144.5q0 195 -402 194q-291 0 -479 -184q141 -207 475 -207zM1048 934q336 0 535 -127t199 -343t-195 -349q-199 -139 -565 -139t-608 194q-270 219 -270 563t256 558t606 214q426 0 731 -303l-199 -184q-193 193 -518 192
q-244 0 -387.5 -125t-153.5 -348q233 197 569 197z" />
    <glyph glyph-name="seven" unicode="7" horiz-adv-x="1714" 
d="M23 1198v285h1599v-285l-1001 -1198h-418l1003 1198h-1183z" />
    <glyph glyph-name="eight" unicode="8" horiz-adv-x="1921" 
d="M956 260q236 0 365 53q121 51 121 145t-117 139.5t-364 45.5q-492 0 -492 -192q0 -86 125.5 -138.5t361.5 -52.5zM1018 881q332 0 332 157q0 176 -394 176t-395 -176q0 -158 338 -157h119zM1790 440q0 -217 -220 -341t-616 -124t-614.5 124t-218.5 341t285 342
q-182 121 -183 285q0 203 191.5 317.5t542 114.5t541 -114.5t190.5 -317.5q-1 -166 -183 -285q285 -125 285 -342z" />
    <glyph glyph-name="nine" unicode="9" horiz-adv-x="1908" 
d="M831 1210q-393 0 -393 -198q0 -193 358 -193t527 205q-147 186 -492 186zM830 535q-336 0 -535 128t-199 328q0 233 202 371.5t554 138.5q406 0 651.5 -211t245.5 -547q0 -254 -158 -446q-266 -324 -733 -324q-426 0 -708 283l215 180q193 -182 485 -182q233 0 379.5 121
t169.5 334q-233 -174 -569 -174z" />
    <glyph glyph-name="colon" unicode=":" horiz-adv-x="786" 
d="M582 0h-377v285h377v-285zM582 684h-377v285h377v-285z" />
    <glyph glyph-name="semicolon" unicode=";" horiz-adv-x="796" 
d="M582 -63q0 -248 -283 -248h-86v170h23q145 0 145 75v66h-176v285h377v-348zM582 684h-377v285h377v-285z" />
    <glyph glyph-name="less" unicode="&#x3c;" horiz-adv-x="1650" 
d="M1495 0h-1403q20 326 227 496q104 86 209 124t278 82t232 72q78 37 78 92q0 127 -268 127t-506 -182l-219 211q358 254 719 254q274 0 447 -119t173 -297q0 -248 -293 -346q-70 -24 -208 -56t-191 -46q-156 -43 -256 -127h981v-285z" />
    <glyph glyph-name="equal" unicode="=" horiz-adv-x="1665" 
d="M1503 374q0 -181 -188.5 -286.5t-538.5 -105.5q-434 0 -737 290l213 195q221 -215 534 -215q176 0 275.5 43t99.5 111q0 106 -268 106h-43q-31 -2 -47 -2h-244v254h332q215 0 215 104q0 127 -273 127t-505 -123l-189 199q319 205 680 205q295 0 458 -102.5t163 -280.5
q0 -133 -119 -225v-4q182 -109 182 -290z" />
    <glyph glyph-name="greater" unicode="&#x3e;" horiz-adv-x="1611" 
d="M893 504v416l-457 -416h457zM1522 219h-269v-219h-360v219h-825v285l825 756h360v-756h269v-285z" />
    <glyph glyph-name="question" unicode="?" horiz-adv-x="1601" 
d="M858 0h-377v285h377v-285zM774 1501q336 0 525.5 -126t189.5 -345q0 -172 -112.5 -264t-352.5 -127q-141 -20 -194 -66t-62 -182h-213q-4 45 -4 72q0 297 231 399q82 25 260 84q90 33 91 105q0 164 -340 163q-301 0 -525 -223l-241 191q346 319 747 319z" />
    <glyph glyph-name="at" unicode="@" horiz-adv-x="1742" 
d="M971 788q0 119 -79.5 119.5t-145.5 -107.5t-66 -257q0 -102 88 -103q76 0 139.5 101.5t63.5 246.5zM846 -59q-317 0 -522 198.5t-205 520.5t248 534q229 197 571 197q290 0 488 -179t198 -448q0 -110 -48 -232t-169 -204t-261 -82t-222 90q-90 -51 -193 -51t-175.5 78.5
t-72.5 207.5q0 238 168 379q102 86 232 86q66 0 139 -35l20 31h201q-158 -424 -158 -532q-1 -108 97 -108t163.5 96t65.5 257q0 217 -128 346.5t-345 129.5q-276 0 -440 -154t-164 -412q0 -545 606 -544v-170h-94z" />
    <glyph glyph-name="A" unicode="A" horiz-adv-x="2019" 
d="M1333 604l-325 608l-326 -608h651zM2019 0h-364l-170 319h-950l-170 -319h-365l788 1483h445z" />
    <glyph glyph-name="B" unicode="B" horiz-adv-x="2240" 
d="M1501 285q223 0 223 159q0 80 -58 128.5t-159 48.5h-909v-336h903zM1501 905q61 0 104.5 43t43.5 106.5t-45 103.5t-117 40h-889v-293h903zM2091 426q-1 -188 -153 -307t-408 -119h-1292v1483h1251q264 0 424 -176q100 -111 100 -252q1 -179 -151 -285q229 -127 229 -344
z" />
    <glyph glyph-name="C" unicode="C" horiz-adv-x="2246" 
d="M1141 1241q-274 0 -446.5 -138.5t-172.5 -358.5t177.5 -359t469.5 -139q367 0 623 276l305 -164q-184 -209 -402 -304t-509 -95q-387 0 -697 191q-150 92 -237.5 250.5t-87.5 344.5q0 328 256 539q295 244 749 244q593 0 947 -438l-328 -117q-272 268 -647 268z" />
    <glyph glyph-name="D" unicode="D" horiz-adv-x="2293" 
d="M1257 285q252 0 402 190q92 117 92 256q0 203 -139 335t-357 132h-657v-913h659zM1233 1483q412 0 654.5 -208t242.5 -543t-264 -544q-238 -188 -584 -188h-1044v1483h995z" />
    <glyph glyph-name="E" unicode="E" horiz-adv-x="2015" 
d="M1903 0h-1665v1483h1607v-285h-1247v-303h866v-285h-866v-325h1305v-285z" />
    <glyph glyph-name="F" unicode="F" horiz-adv-x="1947" 
d="M1845 1198h-1247v-303h866v-285h-866v-610h-360v1483h1607v-285z" />
    <glyph glyph-name="G" unicode="G" horiz-adv-x="2336" 
d="M2214 758q0 -342 -266 -557q-302 -244 -768 -244t-760 246q-256 213 -256 539t258 538q299 248 749 248q584 0 865 -352l-375 -132q-183 195 -481 195t-480 -141.5t-182 -364.5t217 -366q181 -121 419 -121t412 86t249 225h-719v287h1118v-86z" />
    <glyph glyph-name="H" unicode="H" horiz-adv-x="2267" 
d="M2030 0h-361v637h-1071v-637h-360v1481h360v-541h1071v541h361v-1481z" />
    <glyph glyph-name="I" unicode="I" horiz-adv-x="835" 
d="M598 0h-360v1483h360v-1483z" />
    <glyph glyph-name="J" unicode="J" horiz-adv-x="1710" 
d="M1473 494q0 -256 -188.5 -396.5t-541.5 -140.5q-645 0 -694 547h363q18 -127 93 -180.5t252 -53.5t266 54.5t89 189.5v969h361v-989z" />
    <glyph glyph-name="K" unicode="K" horiz-adv-x="2144" 
d="M598 0h-360v1483h360v-690l977 690h496l-822 -582l895 -901h-473l-694 711l-379 -267v-444z" />
    <glyph glyph-name="L" unicode="L" horiz-adv-x="1800" 
d="M1739 0h-1501v1483h360v-1198h1141v-285z" />
    <glyph glyph-name="M" unicode="M" horiz-adv-x="2621" 
d="M2384 0h-361v1053h-6l-706 -850l-707 850h-6v-1053h-360v1483h421l652 -787l651 787h422v-1483z" />
    <glyph glyph-name="N" unicode="N" horiz-adv-x="2269" 
d="M2032 0h-422l-1006 1059h-6v-1059h-360v1483h419l1006 -1061h8v1061h361v-1483z" />
    <glyph glyph-name="O" unicode="O" horiz-adv-x="2342" 
d="M1808 741q0 223 -174 361.5t-462.5 138.5t-462.5 -137.5t-174 -361.5t171.5 -361t463.5 -137t465 137t173 360zM2179 741q0 -330 -256 -540q-295 -244 -753.5 -244t-751.5 244q-254 211 -254 541t256 540q297 246 751.5 246t751.5 -246q256 -211 256 -541z" />
    <glyph glyph-name="P" unicode="P" horiz-adv-x="2031" 
d="M1413 809q113 0 177.5 51t64.5 139q0 199 -244 199h-813v-389h815zM1452 1483q252 0 405.5 -134.5t153.5 -351.5q0 -473 -573 -473h-840v-524h-360v1483h1214z" />
    <glyph glyph-name="Q" unicode="Q" horiz-adv-x="2342" 
d="M1808 745q0 223 -174 361.5t-462.5 138.5t-462.5 -138.5t-174 -362.5t172 -361t462 -137h29l-168 174l322 90l182 -188q274 135 274 423zM1169 -41q-459 0 -751 244q-254 211 -254 539t258 542q300 246 752 246t747 -246q258 -215 258 -539q0 -428 -424 -651l199 -209
l-316 -94l-190 197q-147 -29 -279 -29z" />
    <glyph glyph-name="R" unicode="R" horiz-adv-x="2156" 
d="M1413 809q115 0 178.5 52.5t63.5 142.5t-65.5 142t-178.5 52h-813v-389h815zM598 524v-524h-360v1483h1214q252 0 405.5 -134.5t153.5 -351.5q0 -354 -338 -446l377 -551h-405l-365 524h-682z" />
    <glyph glyph-name="S" unicode="S" horiz-adv-x="2095" 
d="M1036 1231q-469 0 -469 -156q0 -76 129 -106q82 -19 289 -29t272 -16q360 -33 519 -131q170 -102 170 -316q0 -244 -223.5 -378t-643.5 -134q-559 0 -962 279l196 241q375 -229 783 -229q219 0 346 57q121 57 121 150q0 88 -136 117q-76 16 -372 28q-446 18 -647 117
q-215 102 -215 321t215 346.5t612 127.5q543 0 872 -217l-204 -238q-307 166 -652 166z" />
    <glyph glyph-name="T" unicode="T" horiz-adv-x="1896" 
d="M1835 1198h-707v-1198h-360v1198h-707v285h1774v-285z" />
    <glyph glyph-name="U" unicode="U" horiz-adv-x="2248" 
d="M2005 500q0 -240 -244 -392t-653.5 -151.5t-653.5 152.5t-243 391v983h360v-934q0 -139 142.5 -222t394.5 -83t394 84t143 221v934h360v-983z" />
    <glyph glyph-name="V" unicode="V" horiz-adv-x="2088" 
d="M2089 1483l-877 -1483h-335l-877 1483h403l641 -1086l642 1086h403z" />
    <glyph glyph-name="W" unicode="W" horiz-adv-x="2590" 
d="M2550 1483l-510 -1483h-424l-318 1120h-8l-313 -1120h-424l-512 1483h395l324 -1086h6l303 1086h455l301 -1086h6l326 1086h393z" />
    <glyph glyph-name="X" unicode="X" horiz-adv-x="2160" 
d="M2134 0h-479l-572 535l-577 -535h-479l811 752l-785 731h479l547 -514l549 514h479l-784 -731z" />
    <glyph glyph-name="Y" unicode="Y" horiz-adv-x="2121" 
d="M1241 0h-360v578l-881 905h457l604 -619l604 619h457l-881 -905v-578z" />
    <glyph glyph-name="Z" unicode="Z" horiz-adv-x="1894" 
d="M1817 0h-1725v285l1190 909v4h-1171v285h1650v-285l-1192 -907v-6h1248v-285z" />
    <glyph glyph-name="bracketleft" unicode="[" horiz-adv-x="1019" 
d="M948 -289h-710v1913h710v-139h-350v-1635h350v-139z" />
    <glyph glyph-name="backslash" unicode="\" horiz-adv-x="1089" 
d="M1202 -20h-364l-949 1503h363z" />
    <glyph glyph-name="bracketright" unicode="]" 
d="M776 -289h-710v139h350v1635h-350v139h710v-1913z" />
    <glyph glyph-name="asciicircum" unicode="^" horiz-adv-x="1710" 
d="M836 838q338 0 528 -113q182 -111 182 -303t-183 -316t-489 -124q-442 0 -792 297l250 149q238 -176 538 -176q164 0 254 44t90 120q0 160 -368 159q-229 0 -406 -59l-268 170l201 574h1079v-285h-870l-72 -184q154 47 326 47z" />
    <glyph glyph-name="underscore" unicode="_" 
d="M0 -279h1024v-204h-1024v204z" />
    <glyph glyph-name="grave" unicode="`" 
d="M696 1372h-166l-284 381h293z" />
    <glyph glyph-name="a" unicode="a" horiz-adv-x="1806" 
d="M1130 545l-227 416l-227 -416h454zM1806 0h-370l-146 260h-774l-145 -260h-371l698 1260h410z" />
    <glyph glyph-name="b" unicode="b" horiz-adv-x="1966" 
d="M1339 285q55 0 92 32.5t37 79.5t-36.5 78t-96.5 31h-770v-221h774zM1284 770q121 0 121 98q0 45 -37 76t-92 31h-711v-205h719zM1833 376q0 -168 -137 -272t-367 -104h-1124v1260h1089q236 0 381 -152q92 -96 92 -226t-106 -225q172 -113 172 -281z" />
    <glyph glyph-name="c" unicode="c" horiz-adv-x="1945" 
d="M1018 1014q-246 0 -387.5 -103.5t-141.5 -274.5t143.5 -277.5t381.5 -106.5q307 0 524 231l305 -157q-285 -358 -829 -359q-395 0 -656 205q-227 180 -227 461t229 461q262 205 654 204q524 0 846 -395l-328 -112q-223 223 -514 223z" />
    <glyph glyph-name="d" unicode="d" horiz-adv-x="1996" 
d="M1098 285q164 0 278.5 96.5t114.5 240.5t-111.5 248.5t-283.5 104.5h-531v-690h533zM1077 1260q362 0 575.5 -178.5t213.5 -467.5t-238 -462q-207 -152 -508 -152h-915v1260h872z" />
    <glyph glyph-name="e" unicode="e" horiz-adv-x="1728" 
d="M1606 0h-1418v1260h1368v-285h-1007v-205h684v-285h-684v-200h1057v-285z" />
    <glyph glyph-name="f" unicode="f" horiz-adv-x="1675" 
d="M1573 975h-1008v-205h684v-285h-684v-485h-360v1260h1368v-285z" />
    <glyph glyph-name="g" unicode="g" horiz-adv-x="2052" 
d="M1931 645q0 -293 -237 -475q-268 -205 -668 -205t-666 207q-229 180 -229 458t231 462q264 207 656 206q463 0 739 -258l-373 -133q-162 104 -352 105q-246 0 -395.5 -107.5t-149.5 -271.5t148.5 -272.5t382.5 -108.5q395 0 534 221h-604v268h983v-96z" />
    <glyph glyph-name="h" unicode="h" horiz-adv-x="2029" 
d="M1825 0h-361v485h-899v-485h-360v1260h360v-490h899v490h361v-1260z" />
    <glyph glyph-name="i" unicode="i" horiz-adv-x="770" 
d="M565 0h-360v1260h360v-1260z" />
    <glyph glyph-name="j" unicode="j" horiz-adv-x="1511" 
d="M1307 424q0 -219 -168 -341t-480 -122q-575 0 -618 471h360q10 -109 69.5 -149.5t202.5 -40.5t209 38.5t66 135.5v844h359v-836z" />
    <glyph glyph-name="k" unicode="k" horiz-adv-x="1916" 
d="M565 0h-360v1260h360v-539l795 539h514l-741 -502l784 -758h-477l-584 571l-291 -196v-375z" />
    <glyph glyph-name="l" unicode="l" horiz-adv-x="1605" 
d="M1518 0h-1330v1260h361v-975h969v-285z" />
    <glyph glyph-name="m" unicode="m" horiz-adv-x="2287" 
d="M2083 0h-361v831h-6l-571 -679l-574 679h-6v-831h-360v1260h418l520 -627l522 627h418v-1260z" />
    <glyph glyph-name="n" unicode="n" horiz-adv-x="1988" 
d="M1784 0h-420l-793 831h-6v-831h-360v1260h418l796 -832h4v832h361v-1260z" />
    <glyph glyph-name="o" unicode="o" horiz-adv-x="2029" 
d="M1528 631q0 172 -140.5 278.5t-372.5 106.5t-373.5 -106.5t-141.5 -278.5t139 -277.5t376 -105.5t375 105.5t138 277.5zM1898 631q0 -283 -227 -461q-262 -205 -656 -205t-657 205q-227 178 -227 461t229 463q260 204 654 204t655 -204q229 -180 229 -463z" />
    <glyph glyph-name="p" unicode="p" horiz-adv-x="1837" 
d="M1231 692q82 0 130 41t48 109q0 133 -180 133h-664v-283h666zM1264 1260q225 0 363 -118t138 -314t-136 -308t-384 -112h-680v-408h-360v1260h1059z" />
    <glyph glyph-name="q" unicode="q" horiz-adv-x="2029" 
d="M1528 635q0 168 -141.5 275.5t-372.5 107.5t-372.5 -106.5t-141.5 -277.5t133 -272.5t381 -109.5l-131 127l293 88l147 -148q205 117 205 316zM1016 -33q-399 0 -658 205q-227 180 -227 463t229 461q264 207 658 207t653 -207q227 -180 227 -461q0 -352 -350 -541
l183 -180l-281 -92l-174 174q-133 -29 -260 -29z" />
    <glyph glyph-name="r" unicode="r" horiz-adv-x="1904" 
d="M1231 692q82 0 130 41t48 109q0 133 -180 133h-664v-283h666zM565 408v-408h-360v1260h1059q225 0 363 -118t138 -306q0 -283 -264 -385l322 -451h-410l-297 408h-551z" />
    <glyph glyph-name="s" unicode="s" horiz-adv-x="1816" 
d="M889 1012q-375 0 -375 -121q0 -68 129 -88q186 -16 375 -33q354 -31 518 -116t164 -253q0 -205 -196 -323t-558 -117q-492 0 -883 256l187 225q283 -186 675 -186t392 119q0 57 -148 82q-84 14 -426 41q-600 47 -600 383q0 193 189.5 306t525.5 113q500 0 789 -194
l-170 -225q-295 131 -588 131z" />
    <glyph glyph-name="t" unicode="t" horiz-adv-x="1701" 
d="M1630 975h-598v-975h-360v975h-600v285h1558v-285z" />
    <glyph glyph-name="u" unicode="u" horiz-adv-x="1923" 
d="M1751 430q0 -209 -213 -339q-212 -130 -576 -130t-579 133q-211 127 -211 336v830h360v-791q0 -104 111 -163.5t317.5 -59.5t318.5 59.5t112 163.5v791h360v-830z" />
    <glyph glyph-name="v" unicode="v" horiz-adv-x="1869" 
d="M1870 1260l-776 -1260h-318l-776 1260h406l528 -861l530 861h406z" />
    <glyph glyph-name="w" unicode="w" horiz-adv-x="2324" 
d="M2284 1260l-453 -1260h-420l-248 856h-4l-246 -856h-417l-455 1260h393l277 -861h8l233 861h420l236 -861h6l276 861h394z" />
    <glyph glyph-name="x" unicode="x" horiz-adv-x="1984" 
d="M1958 0h-485l-480 426l-481 -426h-485l718 639l-694 621h484l458 -410l457 410h485l-696 -621z" />
    <glyph glyph-name="y" unicode="y" horiz-adv-x="1935" 
d="M1149 0h-361v485l-788 775h457l514 -508l508 508h456l-786 -775v-485z" />
    <glyph glyph-name="z" unicode="z" horiz-adv-x="1693" 
d="M1604 0h-1518v285l989 684v6h-975v285h1456v-285l-987 -684v-6h1035v-285z" />
    <glyph glyph-name="braceleft" unicode="{" horiz-adv-x="980" 
d="M633 1288l2 -170q0 -350 -135 -448v-6q137 -104 137 -449l-4 -176q0 -102 55 -145.5t186 -43.5h21v-139h-141q-481 0 -482 340v373q0 168 -184 244q123 61 160 139q27 57 26 201l-4 174q0 254 101.5 348t380.5 94h143v-139h-14q-133 0 -190.5 -45t-57.5 -152z" />
    <glyph glyph-name="bar" unicode="|" horiz-adv-x="1669" 
d="M893 250q322 0 321 137q0 61 -82.5 98t-234.5 37q-258 0 -387 -125q115 -147 383 -147zM897 778q311 0 485 -100t174 -280t-175 -300t-480 -118q-356 0 -572 182t-216 475q0 207 137 369q230 274 624 274t666 -252l-197 -186q-172 156 -462 155q-393 0 -432 -348
q207 129 448 129z" />
    <glyph glyph-name="braceright" unicode="}" 
d="M723 424v-373q0 -340 -481 -340h-142v139h21q133 0 187 43.5t54 147.5l-4 178q0 342 138 445v6q-137 100 -138 446l4 174q0 104 -58 149.5t-189 45.5h-15v139h144q281 0 381 -95t100 -351l-4 -174q-1 -141 31 -208t155 -128q-184 -76 -184 -244z" />
    <glyph glyph-name="asciitilde" unicode="~" horiz-adv-x="1568" 
d="M80 975v285h1409v-285l-852 -975h-438l854 975h-973z" />
    <glyph glyph-name="nonbreakingspace" unicode="&#xa0;" horiz-adv-x="614" 
 />
    <glyph glyph-name="exclamdown" unicode="&#xa1;" horiz-adv-x="849" 
d="M645 0h-440v166l121 926h200l119 -926v-166zM612 1198h-376v285h376v-285z" />
    <glyph glyph-name="cent" unicode="&#xa2;" horiz-adv-x="1705" 
d="M467 737q0 -190 227 -258v514q-227 -66 -227 -256zM1012 0h-318v225q-260 51 -398 184.5t-138 325.5t138 324.5t398 185.5v238h318v-234q327 -51 536 -313l-284 -94q-102 106 -252 153v-520q156 47 258 162l264 -133q-209 -242 -522 -285v-219z" />
    <glyph glyph-name="sterling" unicode="&#xa3;" horiz-adv-x="1724" 
d="M1260 -18q-78 0 -252 32.5t-269 32.5q-219 0 -411 -121l-217 324q281 158 280 342v10q-2 12 -2 23h-291v256h221q-31 66 -30 137q0 211 186.5 347t487.5 136t561 -139l-148 -244q-150 96 -344 96t-281 -46t-87 -158q0 -55 30 -129h453v-256h-397v-25q0 -145 -70 -272h55
q115 0 273.5 -14.5t203.5 -14.5q131 0 261 78l165 -293q-221 -102 -378 -102z" />
    <glyph glyph-name="currency" unicode="&#xa4;" horiz-adv-x="1687" 
d="M1237 627q0 162 -108.5 265t-282.5 103t-283.5 -103.5t-109.5 -265.5t108.5 -264t282.5 -102t283.5 102.5t109.5 264.5zM1565 624q0 -206 -131 -372q-219 -276 -590 -276t-590 278q-129 164 -129 370.5t129 370.5q221 281 589 281t591 -281q131 -165 131 -371z" />
    <glyph glyph-name="yen" unicode="&#xa5;" horiz-adv-x="2121" 
d="M1806 928v-256h-473l-92 -94v-80h565v-256h-565v-242h-360v242h-564v256h564v80l-93 94h-471v256h224l-541 555h457l604 -619l604 619h457l-541 -555h225z" />
    <glyph glyph-name="brokenbar" unicode="&#xa6;" 
d="M410 408h206v-758h-206v758zM410 1432h206v-758h-206v758z" />
    <glyph glyph-name="section" unicode="&#xa7;" horiz-adv-x="1882" 
d="M737 911q-193 0 -192 -80q0 -61 182 -83q17 -2 539 -35q66 31 65 71q0 127 -594 127zM1702 369q0 -209 -207 -338q-215 -131 -584 -131q-270 0 -480 76t-292 186l150 196q274 -197 657 -196q178 0 282 42t103 105q0 92 -151 117q-55 10 -390 26t-472 92q-137 77 -138 253
q0 145 115 262q-115 96 -115 225q0 186 189.5 303t515.5 117q461 0 774 -195l-137 -239q-309 158 -703 157q-274 0 -274 -116q0 -72 119 -90q41 -6 317 -15q373 -10 547 -103t174 -298q0 -132 -96 -234q96 -84 96 -202z" />
    <glyph glyph-name="dieresis" unicode="&#xa8;" 
d="M428 1546.5q0 -63.5 -44 -108.5t-108 -45t-109.5 45t-45.5 108.5t45 108.5t108.5 45t108.5 -45t45 -108.5zM903 1546.5q0 -63.5 -44 -108.5t-108 -45t-109.5 45t-45.5 108.5t45 108.5t108.5 45t108.5 -45t45 -108.5z" />
    <glyph glyph-name="copyright" unicode="&#xa9;" horiz-adv-x="1705" 
d="M850 274q-176 0 -280.5 120t-104.5 329t107.5 332t287.5 123q264 0 334 -267h-129q-55 164 -201 164q-256 0 -256 -352q0 -164 68.5 -254t187.5 -90q156 0 211 182h129q-70 -287 -354 -287zM855 80q267 0 457 190t189 456q0 267 -187.5 456.5t-457.5 189.5t-460 -190
t-190 -455q0 -266 191 -456.5t458 -190.5zM1587 727q0 -307 -215 -522t-517 -215t-519 217t-217 519t216 518t521 216t518 -213t213 -520z" />
    <glyph glyph-name="ordfeminine" unicode="&#xaa;" horiz-adv-x="1191" 
d="M737 1012l-141 258l-141 -258h282zM1200 641h-256l-96 172h-504l-96 -172h-256l467 842h276z" />
    <glyph glyph-name="guillemotleft" unicode="&#xab;" horiz-adv-x="1802" 
d="M963 991l-377 -334l370 -331h-430l-385 331l396 334h426zM1661 991l-377 -334l371 -331h-428l-387 331l395 334h426z" />
    <glyph glyph-name="logicalnot" unicode="&#xac;" horiz-adv-x="1671" 
d="M881 250q344 0 344 137q0 150 -344 150h-90q-344 0 -345 -150q0 -137 340 -137h95zM803 995q-279 0 -279 -122.5t312 -122.5t311.5 122.5t-279.5 122.5h-65zM1571 372q0 -177 -194 -285t-544 -107.5t-541.5 107t-191.5 285.5t217 296q-129 102 -129 229q0 176 168 276.5
t479.5 100.5t479.5 -100.5t168 -276.5q0 -127 -129 -229q217 -119 217 -296z" />
    <glyph glyph-name="minus" unicode="&#xad;" horiz-adv-x="1705" 
d="M254 713h1198v-203h-1198v203z" />
    <glyph glyph-name="minus" unicode="&#x2212;" horiz-adv-x="1705" 
d="M254 713h1198v-203h-1198v203z" />
    <glyph glyph-name="registered" unicode="&#xae;" horiz-adv-x="776" 
d="M385 1186q68 0 68 49t-72 49h-45v-98h49zM336 1139v-142h-72v342h121q145 0 145 -100q0 -63 -73 -90l75 -152h-81l-66 142h-49zM657 1169.5q0 112.5 -76.5 189.5t-191.5 77t-191.5 -77t-76.5 -189.5t77.5 -191.5t190.5 -79t190.5 79t77.5 191.5zM705 1171
q0 -131 -94.5 -224t-226.5 -93t-222 93t-90 223t93 222.5t225 92.5t223.5 -91.5t91.5 -222.5z" />
    <glyph glyph-name="macron" unicode="&#xaf;" 
d="M885 1425h-744v193h744v-193z" />
    <glyph glyph-name="macron" unicode="&#x2c9;" 
d="M885 1425h-744v193h744v-193z" />
    <glyph glyph-name="degree" unicode="&#xb0;" horiz-adv-x="1064" 
d="M735 1145q0 80 -59.5 137t-143 57t-143 -57t-59.5 -137t58 -135.5t144 -55.5t144.5 55.5t58.5 135.5zM905 1144.5q0 -143.5 -108 -247.5t-263 -104q-155 1 -264 105t-108.5 247t108.5 247t264 105q156 -1 263 -105q108 -104 108 -247.5z" />
    <glyph glyph-name="plusminus" unicode="&#xb1;" horiz-adv-x="1705" 
d="M254 197h1198v-199h-1198v199zM752 1223h202v-326h498v-199h-498v-325h-202v325h-498v199h498v326z" />
    <glyph glyph-name="twosuperior" unicode="&#xb2;" horiz-adv-x="1196" 
d="M1079 590h-1048q18 350 409 459q141 35 281 71q104 31 104 84q0 113 -221 113t-399 -127l-142 129q258 172 529 172q207 0 335 -82t128 -211q0 -102 -72.5 -159.5t-272.5 -105.5t-223 -56q-127 -41 -190 -117h782v-170z" />
    <glyph glyph-name="threesuperior" unicode="&#xb3;" horiz-adv-x="1239" 
d="M1118 856q0 -134 -134 -207.5t-382 -73.5q-334 0 -573 197l139 117q166 -145 444 -145t279 118q0 68 -125 86q-47 8 -172 8h-170v170h205q217 0 217 93q0 43 -70.5 70.5t-193.5 27.5q-193 0 -361 -80l-92 133q213 121 453 121t363.5 -69.5t123.5 -184.5t-119 -182v-2
q168 -63 168 -197z" />
    <glyph glyph-name="acute" unicode="&#xb4;" 
d="M784 1753l-284 -381h-166l158 381h292z" />
    <glyph glyph-name="mu" unicode="&#xb5;" horiz-adv-x="1249" 
d="M387 389q0 -184 170 -184q105 0 159 87t89 286l90 514h289l-193 -1092h-268l18 117q-80 -150 -213 -150t-215 121l-90 -526h-286l268 1530h289l-76 -435q-31 -176 -31 -268z" />
    <glyph glyph-name="mu" unicode="&#x3bc;" horiz-adv-x="1249" 
d="M387 389q0 -184 170 -184q105 0 159 87t89 286l90 514h289l-193 -1092h-268l18 117q-80 -150 -213 -150t-215 121l-90 -526h-286l268 1530h289l-76 -435q-31 -176 -31 -268z" />
    <glyph glyph-name="paragraph" unicode="&#xb6;" horiz-adv-x="2121" 
d="M897 809v389h-162q-113 0 -178 -52t-65 -141t63 -142.5t178 -53.5h164zM1487 809v389h-230v-389h230zM1847 -338h-360v862h-230v-862h-360v862h-188q-573 0 -574 473q0 217 152.5 351.5t406.5 134.5h1153v-1821z" />
    <glyph glyph-name="periodcentered" unicode="&#xb7;" horiz-adv-x="993" 
d="M686 485h-377v285h377v-285z" />
    <glyph glyph-name="periodcentered" unicode="&#x2219;" horiz-adv-x="993" 
d="M686 485h-377v285h377v-285z" />
    <glyph glyph-name="cedilla" unicode="&#xb8;" 
d="M711 -268q0 -84 -66.5 -138.5t-170.5 -54.5t-232 49l57 109q70 -29 118 -29t74.5 20.5t26.5 51.5q0 37 -37 37q-27 0 -51 -41l-100 45l121 229h170l-62 -106q152 -43 152 -172z" />
    <glyph glyph-name="onesuperior" unicode="&#xb9;" horiz-adv-x="602" 
d="M440 590h-237v674l-158 -58v193q92 25 156 80h239v-889z" />
    <glyph glyph-name="ordmasculine" unicode="&#xba;" horiz-adv-x="1306" 
d="M973 1068q0 105 -87 171t-232.5 66t-233.5 -65.5t-88 -171.5t87 -171.5t234.5 -65.5t233.5 66t86 171zM1225 1067q0 -186 -159 -309t-413 -123t-412.5 123t-158.5 310t159.5 310t410.5 123t412 -124t161 -310z" />
    <glyph glyph-name="guillemotright" unicode="&#xbb;" horiz-adv-x="1802" 
d="M963 657l-388 -331h-428l371 331l-377 334h426zM1661 657l-385 -331h-430l371 331l-377 334h426z" />
    <glyph glyph-name="onequarter" unicode="&#xbc;" horiz-adv-x="2285" 
d="M1817 313v320l-381 -320h381zM2243 154h-199v-154h-227v154h-617v157l617 518h227v-516h199v-159zM1718 1483l-1325 -1503h-364l1327 1503h362zM420 647h-227v629l-150 -53v180q78 20 150 74h227v-830z" />
    <glyph glyph-name="onehalf" unicode="&#xbd;" horiz-adv-x="2316" 
d="M2204 0h-1002q18 326 391 428q135 33 269 68q98 29 98 77q0 107 -210 107t-380 -119l-135 121q242 158 504 158q199 0 320.5 -77t121.5 -196q0 -94 -70 -148t-261 -99t-212 -52q-119 -39 -182 -108h748v-160zM1718 1483l-1325 -1503h-364l1327 1503h362zM420 647h-227
v629l-150 -53v180q78 20 150 74h227v-830z" />
    <glyph glyph-name="threequarters" unicode="&#xbe;" horiz-adv-x="2893" 
d="M2425 313v320l-381 -320h381zM2851 154h-199v-154h-227v154h-617v157l617 518h227v-516h199v-159zM2327 1483l-1326 -1503h-364l1327 1503h363zM1067 896q0 -126 -128 -193.5t-366 -67.5q-317 0 -546 182l133 111q160 -137 425 -137t265 110q0 88 -283 88h-164v158h197
q207 0 207 90t-252 90q-180 0 -344 -76l-88 125q201 111 431 111t348 -64.5t118 -171t-113 -170.5v-2q160 -57 160 -183z" />
    <glyph glyph-name="questiondown" unicode="&#xbf;" horiz-adv-x="1601" 
d="M827 -18q-338 0 -526 125.5t-188 345.5q-1 174 113 265t360 128q137 20 188 65t60 181h213l4 -72q0 -297 -232 -399q-84 -25 -260 -84q-90 -33 -90 -105q0 -164 340 -164q301 0 524 224l242 -191q-344 -319 -748 -319zM1120 1198h-377v285h377v-285z" />
    <glyph glyph-name="Agrave" unicode="&#xc0;" horiz-adv-x="2019" 
d="M1333 604l-325 608l-326 -608h651zM2019 0h-364l-170 319h-950l-170 -319h-365l788 1483h445zM1194 1602h-166l-285 380h293z" />
    <glyph glyph-name="Aacute" unicode="&#xc1;" horiz-adv-x="2019" 
d="M1333 604l-325 608l-326 -608h651zM2019 0h-364l-170 319h-950l-170 -319h-365l788 1483h445zM1282 1982l-285 -380h-166l158 380h293z" />
    <glyph glyph-name="Acircumflex" unicode="&#xc2;" horiz-adv-x="2019" 
d="M1333 604l-325 608l-326 -608h651zM2019 0h-364l-170 319h-950l-170 -319h-365l788 1483h445zM1452 1597h-264l-178 193l-179 -193h-264l353 381h180z" />
    <glyph glyph-name="Atilde" unicode="&#xc3;" horiz-adv-x="2019" 
d="M1333 604l-325 608l-326 -608h651zM2019 0h-364l-170 319h-950l-170 -319h-365l788 1483h445zM1147 1634q-63 0 -153 38t-107 38q-47 0 -107 -108l-157 122q154 182 251 183q56 0 144 -40t117 -40q39 0 108 104l141 -98q-98 -199 -237 -199z" />
    <glyph glyph-name="Adieresis" unicode="&#xc4;" horiz-adv-x="2019" 
d="M1333 604l-325 608l-326 -608h651zM2019 0h-364l-170 319h-950l-170 -319h-365l788 1483h445zM926 1776q0 -62 -44 -108t-108 -46t-110 45t-46 109t46 108q46 45 108 45t108 -45t46 -108zM1401 1776q0 -62 -44 -108q-45 -46 -109 -46t-109 45t-45 109t45 108
q45 45 108 45t109 -45t45 -108z" />
    <glyph glyph-name="Aring" unicode="&#xc5;" horiz-adv-x="2019" 
d="M1333 604l-325 608l-326 -608h651zM1110 1802.5q0 30.5 -29.5 53t-72.5 22.5t-73 -22.5t-30 -53.5q0 -74 103 -73q43 0 72.5 21.5t29.5 52zM2019 0h-364l-170 319h-950l-170 -319h-365l788 1483h445zM1260 1802q0 -88 -72 -148.5t-180.5 -60.5t-179 60.5t-70.5 148.5
t71.5 149.5t179.5 61.5t179.5 -61.5t71.5 -149.5z" />
    <glyph glyph-name="AE" unicode="&#xc6;" horiz-adv-x="2963" 
d="M1186 594v518l-377 -518h377zM2851 0h-1665v309h-580l-229 -309h-377l1077 1483h1716v-285h-1247v-303h867v-285h-867v-325h1305v-285z" />
    <glyph glyph-name="Ccedilla" unicode="&#xc7;" horiz-adv-x="2246" 
d="M1141 1241q-274 0 -446.5 -138.5t-172.5 -358.5t177.5 -359t469.5 -139q365 0 623 276l305 -164q-334 -385 -848 -397l-35 -53q152 -43 152 -172q0 -84 -67 -138.5t-171 -54.5t-231 49l57 109q70 -29 125 -29q94 0 95 70q0 39 -37 39q-29 0 -52 -41l-100 45l98 176
q-436 41 -678 251q-241 210 -241 536t256 536q295 244 749 244q593 0 947 -438l-328 -117q-268 268 -647 268z" />
    <glyph glyph-name="Egrave" unicode="&#xc8;" horiz-adv-x="2015" 
d="M1903 0h-1665v1483h1607v-285h-1247v-303h866v-285h-866v-325h1305v-285zM1192 1602h-166l-285 380h293z" />
    <glyph glyph-name="Eacute" unicode="&#xc9;" horiz-adv-x="2015" 
d="M1903 0h-1665v1483h1607v-285h-1247v-303h866v-285h-866v-325h1305v-285zM1280 1982l-285 -380h-166l158 380h293z" />
    <glyph glyph-name="Ecircumflex" unicode="&#xca;" horiz-adv-x="2015" 
d="M1903 0h-1665v1483h1607v-285h-1247v-303h866v-285h-866v-325h1305v-285zM1450 1597h-264l-178 193l-179 -193h-264l353 381h180z" />
    <glyph glyph-name="Edieresis" unicode="&#xcb;" horiz-adv-x="2015" 
d="M1903 0h-1665v1483h1607v-285h-1247v-303h866v-285h-866v-325h1305v-285zM924 1776q0 -62 -44 -108t-108 -46t-110 45t-46 109t46 108q46 45 108 45t108 -45t46 -108zM1399 1776q0 -62 -44 -108q-45 -46 -109 -46t-109 45t-45 109t45 108q45 45 108 45t109 -45t45 -108z
" />
    <glyph glyph-name="Igrave" unicode="&#xcc;" horiz-adv-x="835" 
d="M598 0h-360v1483h360v-1483zM602 1602h-166l-284 380h292z" />
    <glyph glyph-name="Iacute" unicode="&#xcd;" horiz-adv-x="835" 
d="M598 0h-360v1483h360v-1483zM690 1982l-284 -380h-166l157 380h293z" />
    <glyph glyph-name="Icircumflex" unicode="&#xce;" horiz-adv-x="835" 
d="M598 0h-360v1483h360v-1483zM860 1597h-264l-178 193l-178 -193h-265l353 381h180z" />
    <glyph glyph-name="Idieresis" unicode="&#xcf;" horiz-adv-x="835" 
d="M598 0h-360v1483h360v-1483zM334 1776q0 -62 -44 -108t-108 -46t-110 45q-45 45 -45 109t45 108q45 45 108 45q62 0 108 -45t46 -108zM809 1776q0 -62 -44 -108q-45 -46 -109 -46t-109 45t-45 109t45 108q45 45 108 45t109 -45t45 -108z" />
    <glyph glyph-name="Eth" unicode="&#xd0;" horiz-adv-x="2291" 
d="M1255 285q252 0 402 190q92 117 92 256q0 203 -139.5 335t-356.5 132h-657v-309h600v-285h-600v-319h659zM1231 1483q412 0 654.5 -208t242.5 -542t-266 -545q-238 -188 -582 -188h-1044v604h-150v285h150v594h995z" />
    <glyph glyph-name="Ntilde" unicode="&#xd1;" horiz-adv-x="2269" 
d="M2032 0h-422l-1006 1059h-6v-1059h-360v1483h419l1006 -1061h8v1061h361v-1483zM1272 1634q-62 0 -152 38t-108 38q-47 0 -107 -108l-157 122q154 182 251 183q55 0 143 -40t118 -40q39 0 108 104l141 -98q-98 -199 -237 -199z" />
    <glyph glyph-name="Ograve" unicode="&#xd2;" horiz-adv-x="2342" 
d="M1808 741q0 223 -174 361t-463 139q-289 0 -463 -138q-174 -137 -173 -361q0 -224 172 -361q171 -137 463 -137t465 137t173 360zM2179 741q0 -330 -256 -540q-295 -244 -754 -244t-751 244q-254 211 -254 541t256 540q298 246 752 246t751 -246q256 -211 256 -541z
M1356 1602h-166l-285 380h293z" />
    <glyph glyph-name="Oacute" unicode="&#xd3;" horiz-adv-x="2342" 
d="M1808 741q0 223 -174 361t-463 139q-289 0 -463 -138q-174 -137 -173 -361q0 -224 172 -361q171 -137 463 -137t465 137t173 360zM2179 741q0 -330 -256 -540q-295 -244 -754 -244t-751 244q-254 211 -254 541t256 540q298 246 752 246t751 -246q256 -211 256 -541z
M1444 1982l-285 -380h-166l158 380h293z" />
    <glyph glyph-name="Ocircumflex" unicode="&#xd4;" horiz-adv-x="2342" 
d="M1808 741q0 223 -174 361t-463 139q-289 0 -463 -138q-174 -137 -173 -361q0 -224 172 -361q171 -137 463 -137t465 137t173 360zM2179 741q0 -330 -256 -540q-295 -244 -754 -244t-751 244q-254 211 -254 541t256 540q298 246 752 246t751 -246q256 -211 256 -541z
M1614 1597h-264l-179 193l-178 -193h-264l352 381h181z" />
    <glyph glyph-name="Otilde" unicode="&#xd5;" horiz-adv-x="2342" 
d="M1808 741q0 223 -174 361t-463 139q-289 0 -463 -138q-174 -137 -173 -361q0 -224 172 -361q171 -137 463 -137t465 137t173 360zM2179 741q0 -330 -256 -540q-295 -244 -754 -244t-751 244q-254 211 -254 541t256 540q298 246 752 246t751 -246q256 -211 256 -541z
M1309 1634q-63 0 -153 38t-107 38q-47 0 -107 -108l-158 122q154 182 252 183q56 0 144 -40t116 -40q39 0 109 104l141 -98q-98 -199 -237 -199z" />
    <glyph glyph-name="Odieresis" unicode="&#xd6;" horiz-adv-x="2342" 
d="M1808 741q0 223 -174 361t-463 139q-289 0 -463 -138q-174 -137 -173 -361q0 -224 172 -361q171 -137 463 -137t465 137t173 360zM2179 741q0 -330 -256 -540q-295 -244 -754 -244t-751 244q-254 211 -254 541t256 540q298 246 752 246t751 -246q256 -211 256 -541z
M1087 1776q0 -62 -44 -108t-108 -46t-110 45q-45 45 -45 109t45 108q45 45 109 45t108 -45q45 -45 45 -108zM1563 1776q0 -62 -44 -108q-45 -46 -109 -46t-110 45q-45 45 -45 109t45 108q44 45 108 45t110 -45t45 -108z" />
    <glyph glyph-name="multiply" unicode="&#xd7;" horiz-adv-x="1705" 
d="M416 1202l450 -450l451 450l141 -139l-450 -453l450 -450l-141 -140l-451 451l-450 -451l-140 140l451 450l-451 453z" />
    <glyph glyph-name="Oslash" unicode="&#xd8;" horiz-adv-x="2342" 
d="M1171 1241q-289 0 -462.5 -137.5t-173.5 -361.5t190 -373l690 839q-119 33 -244 33zM1169 244q293 0 466 137t173 371t-231 389l-700 -850q135 -47 292 -47zM2179 743q0 -330 -256 -542q-293 -244 -754 -244q-248 0 -491 92l-113 -139h-219l178 215q-360 221 -360 618
q0 328 256 539q299 246 751 246q219 0 445 -76l117 141h217l-174 -213q403 -229 403 -637z" />
    <glyph glyph-name="Ugrave" unicode="&#xd9;" horiz-adv-x="2248" 
d="M2005 500q0 -240 -244 -392q-243 -152 -653 -151q-410 0 -654 152t-243 391v983h360v-934q1 -139 143 -222t394 -83t394 84t143 221v934h360v-983zM1309 1602h-166l-285 380h293z" />
    <glyph glyph-name="Uacute" unicode="&#xda;" horiz-adv-x="2248" 
d="M2005 500q0 -240 -244 -392q-243 -152 -653 -151q-410 0 -654 152t-243 391v983h360v-934q1 -139 143 -222t394 -83t394 84t143 221v934h360v-983zM1397 1982l-285 -380h-166l158 380h293z" />
    <glyph glyph-name="Ucircumflex" unicode="&#xdb;" horiz-adv-x="2248" 
d="M2005 500q0 -240 -244 -392q-243 -152 -653 -151q-410 0 -654 152t-243 391v983h360v-934q1 -139 143 -222t394 -83t394 84t143 221v934h360v-983zM1567 1597h-264l-179 193l-178 -193h-264l352 381h180z" />
    <glyph glyph-name="Udieresis" unicode="&#xdc;" horiz-adv-x="2248" 
d="M2005 500q0 -240 -244 -392q-243 -152 -653 -151q-410 0 -654 152t-243 391v983h360v-934q1 -139 143 -222t394 -83t394 84t143 221v934h360v-983zM1040 1776q0 -62 -44 -108t-108 -46t-110 45q-45 45 -45 109t45 108q44 45 108 45t109 -45t45 -108zM1516 1776
q0 -62 -44 -108t-109 -46q-64 0 -110 45q-45 45 -45 109t45 108q45 45 109 45t108 -45q46 -45 46 -108z" />
    <glyph glyph-name="Yacute" unicode="&#xdd;" horiz-adv-x="2121" 
d="M1241 0h-360v578l-881 905h457l604 -619l604 619h457l-881 -905v-578zM1333 1982l-284 -380h-166l157 380h293z" />
    <glyph glyph-name="Thorn" unicode="&#xde;" horiz-adv-x="2031" 
d="M1413 586q115 0 178.5 51t63.5 139q0 199 -244 199h-813v-389h815zM1452 1260q252 0 405.5 -134.5t153.5 -351.5q0 -473 -573 -473h-840v-301h-360v1483h360v-223h854z" />
    <glyph glyph-name="germandbls" unicode="&#xdf;" horiz-adv-x="3549" 
d="M889 1012q-375 0 -375 -121q0 -68 129 -88q186 -16 375 -33q354 -31 518 -116t164 -253q0 -205 -196 -323t-558 -117q-492 0 -883 256l187 225q283 -186 675 -186t392 119q0 57 -148 82q-84 14 -426 41q-600 47 -600 383q0 193 189.5 306t525.5 113q500 0 789 -194
l-170 -225q-295 131 -588 131zM2621 1012q-375 0 -374 -121q0 -68 129 -88q188 -16 377 -33q352 -31 515.5 -117t163.5 -252q0 -205 -196 -323t-557 -117q-494 0 -885 256l188 225q284 -186 676 -186t391 119q0 57 -149 82q-82 14 -426 41q-600 47 -600 383q0 195 193.5 307
t547.5 112q477 0 764 -194l-170 -225q-295 131 -588 131z" />
    <glyph glyph-name="agrave" unicode="&#xe0;" horiz-adv-x="1806" 
d="M1130 545l-227 416l-227 -416h454zM1806 0h-370l-146 260h-774l-145 -260h-371l698 1260h410zM1087 1372h-165l-285 381h293z" />
    <glyph glyph-name="aacute" unicode="&#xe1;" horiz-adv-x="1806" 
d="M1130 545l-227 416l-227 -416h454zM1806 0h-370l-146 260h-774l-145 -260h-371l698 1260h410zM1176 1753l-285 -381h-166l158 381h293z" />
    <glyph glyph-name="acircumflex" unicode="&#xe2;" horiz-adv-x="1806" 
d="M1130 545l-227 416l-227 -416h454zM1806 0h-370l-146 260h-774l-145 -260h-371l698 1260h410zM1346 1368h-265l-178 193l-178 -193h-264l352 381h180z" />
    <glyph glyph-name="atilde" unicode="&#xe3;" horiz-adv-x="1806" 
d="M1130 545l-227 416l-227 -416h454zM1806 0h-370l-146 260h-774l-145 -260h-371l698 1260h410zM1040 1405q-63 0 -152 38t-108 38q-47 0 -106 -109l-158 123q154 182 252 182q55 0 143 -40t117 -40q39 0 109 105l141 -98q-98 -199 -238 -199z" />
    <glyph glyph-name="adieresis" unicode="&#xe4;" horiz-adv-x="1806" 
d="M1130 545l-227 416l-227 -416h454zM1806 0h-370l-146 260h-774l-145 -260h-371l698 1260h410zM819 1546q0 -63 -44 -108t-108 -45t-110 45q-45 45 -45 108q0 62 45 108t109 46t108 -46q45 -46 45 -108zM1294 1546q0 -63 -44 -108t-108 -45t-110 45q-45 45 -45 108
q0 62 45 108q44 46 108 46t109 -46t45 -108z" />
    <glyph glyph-name="aring" unicode="&#xe5;" horiz-adv-x="1806" 
d="M1130 545l-227 416l-227 -416h454zM1006 1580q0 30 -30 52.5t-73 22.5t-71.5 -22.5t-28.5 -53.5t27.5 -52.5t71.5 -21.5t74 22.5t30 52.5zM1806 0h-370l-146 260h-774l-145 -260h-371l698 1260h410zM1157 1579q0 -88 -71.5 -148.5t-180 -60.5t-179.5 60.5t-71 148.5
t71.5 149.5t179.5 61.5t179.5 -61.5t71.5 -149.5z" />
    <glyph glyph-name="ae" unicode="&#xe6;" horiz-adv-x="2588" 
d="M1049 498v395l-306 -395h306zM2466 0h-1417v213h-529l-164 -213h-356l977 1260h1440v-285h-1008v-205h684v-285h-684v-200h1057v-285z" />
    <glyph glyph-name="ccedilla" unicode="&#xe7;" horiz-adv-x="1945" 
d="M1018 1014q-246 0 -387.5 -103.5t-141.5 -274.5t143.5 -277.5t381.5 -106.5q311 0 524 231l305 -157q-262 -330 -735 -357l-37 -65q152 -43 152 -172q0 -84 -66.5 -138.5t-170.5 -54.5t-232 49l57 109q70 -29 118 -29t74.5 20.5t26.5 51.5q0 37 -37 37q-27 0 -51 -41
l-100 45l98 188q-385 35 -597 213t-212 455t229 457q262 205 654 204q527 0 846 -395l-328 -112q-217 223 -514 223z" />
    <glyph glyph-name="egrave" unicode="&#xe8;" horiz-adv-x="1728" 
d="M1606 0h-1418v1260h1368v-285h-1007v-205h684v-285h-684v-200h1057v-285zM1049 1372h-166l-285 381h293z" />
    <glyph glyph-name="eacute" unicode="&#xe9;" horiz-adv-x="1728" 
d="M1606 0h-1418v1260h1368v-285h-1007v-205h684v-285h-684v-200h1057v-285zM1137 1753l-285 -381h-166l158 381h293z" />
    <glyph glyph-name="ecircumflex" unicode="&#xea;" horiz-adv-x="1728" 
d="M1606 0h-1418v1260h1368v-285h-1007v-205h684v-285h-684v-200h1057v-285zM1307 1368h-265l-178 193l-178 -193h-264l352 381h180z" />
    <glyph glyph-name="edieresis" unicode="&#xeb;" horiz-adv-x="1728" 
d="M1606 0h-1418v1260h1368v-285h-1007v-205h684v-285h-684v-200h1057v-285zM780 1546q0 -63 -44 -108t-108 -45t-110 45q-45 45 -45 108q0 62 45 108q44 46 108 46t109 -46t45 -108zM1255 1546q0 -63 -44 -108t-108 -45t-110 45q-45 45 -45 108q0 62 45 108t109 46t108 -46
q45 -46 45 -108z" />
    <glyph glyph-name="igrave" unicode="&#xec;" horiz-adv-x="770" 
d="M565 0h-360v1260h360v-1260zM569 1372h-166l-284 381h293z" />
    <glyph glyph-name="iacute" unicode="&#xed;" horiz-adv-x="770" 
d="M565 0h-360v1260h360v-1260zM657 1753l-284 -381h-166l158 381h292z" />
    <glyph glyph-name="icircumflex" unicode="&#xee;" horiz-adv-x="770" 
d="M565 0h-360v1260h360v-1260zM827 1368h-264l-178 193l-178 -193h-264l352 381h180z" />
    <glyph glyph-name="idieresis" unicode="&#xef;" horiz-adv-x="770" 
d="M565 0h-360v1260h360v-1260zM301 1546q0 -63 -44 -108q-45 -45 -109 -45t-109 45t-45 108q0 62 45 108t108 46t109 -45q45 -46 45 -109zM776 1546q0 -63 -44 -108t-108 -45t-110 45q-45 45 -45 108q0 62 45 108q44 46 108 46t109 -46t45 -108z" />
    <glyph glyph-name="eth" unicode="&#xf0;" horiz-adv-x="1996" 
d="M1098 285q164 0 278.5 96.5t114.5 240.5t-111.5 248.5t-283.5 104.5h-531v-201h500v-285h-500v-204h533zM1077 1260q362 0 575.5 -178.5t213.5 -467.5t-238 -462q-207 -152 -508 -152h-915v489h-94v285h94v486h872z" />
    <glyph glyph-name="ntilde" unicode="&#xf1;" horiz-adv-x="1988" 
d="M1784 0h-420l-793 831h-6v-831h-360v1260h418l796 -832h4v832h361v-1260zM1133 1405q-63 0 -153 38t-108 38q-47 0 -106 -109l-158 123q154 182 252 182q56 0 144 -40t116 -40q39 0 109 105l141 -98q-98 -199 -237 -199z" />
    <glyph glyph-name="ograve" unicode="&#xf2;" horiz-adv-x="2029" 
d="M500 631q0 -171 139 -277t376 -106t375 106t138 277q0 172 -140 278q-140 107 -372 107t-374 -106t-142 -279zM1898 631q0 -283 -227 -461q-262 -205 -656 -205t-657 205q-227 178 -227 461t229 463q260 204 654 204t655 -204q229 -180 229 -463zM1200 1372h-166
l-284 381h292z" />
    <glyph glyph-name="oacute" unicode="&#xf3;" horiz-adv-x="2029" 
d="M500 631q0 -171 139 -277t376 -106t375 106t138 277q0 172 -140 278q-140 107 -372 107t-374 -106t-142 -279zM1898 631q0 -283 -227 -461q-262 -205 -656 -205t-657 205q-227 178 -227 461t229 463q260 204 654 204t655 -204q229 -180 229 -463zM1288 1753l-284 -381
h-166l157 381h293z" />
    <glyph glyph-name="ocircumflex" unicode="&#xf4;" horiz-adv-x="2029" 
d="M500 631q0 -171 139 -277t376 -106t375 106t138 277q0 172 -140 278q-140 107 -372 107t-374 -106t-142 -279zM1898 631q0 -283 -227 -461q-262 -205 -656 -205t-657 205q-227 178 -227 461t229 463q260 204 654 204t655 -204q229 -180 229 -463zM1458 1368h-264
l-178 193l-178 -193h-265l353 381h180z" />
    <glyph glyph-name="otilde" unicode="&#xf5;" horiz-adv-x="2029" 
d="M500 631q0 -171 139 -277t376 -106t375 106t138 277q0 172 -140 278q-140 107 -372 107t-374 -106t-142 -279zM1898 631q0 -283 -227 -461q-262 -205 -656 -205t-657 205q-227 178 -227 461t229 463q260 204 654 204t655 -204q229 -180 229 -463zM1153 1405
q-63 0 -153 38t-107 38q-47 0 -107 -109l-157 123q154 182 252 182q55 0 143 -40t117 -40q39 0 108 105l142 -98q-98 -199 -238 -199z" />
    <glyph glyph-name="odieresis" unicode="&#xf6;" horiz-adv-x="2029" 
d="M500 631q0 -171 139 -277t376 -106t375 106t138 277q0 172 -140 278q-140 107 -372 107t-374 -106t-142 -279zM1898 631q0 -283 -227 -461q-262 -205 -656 -205t-657 205q-227 178 -227 461t229 463q260 204 654 204t655 -204q229 -180 229 -463zM932 1546
q0 -63 -44 -108t-108 -45t-110 45q-45 45 -45 108q0 62 45 108t108 46t109 -45q45 -46 45 -109zM1407 1546q0 -63 -44 -108q-45 -45 -109 -45t-109 45t-45 108q0 62 45 108t108 46t109 -45q45 -46 45 -109z" />
    <glyph glyph-name="divide" unicode="&#xf7;" horiz-adv-x="1705" 
d="M854 369q61 0 106.5 -43.5t45.5 -105.5t-44 -107t-107.5 -45t-108 43t-44.5 106.5t45.5 107.5t106.5 44zM254 711h1198v-199h-1198v199zM854 1155q61 0 106.5 -44t45.5 -106t-44 -107.5t-107.5 -45.5t-108 44t-44.5 107.5t45.5 107.5t106.5 44z" />
    <glyph glyph-name="oslash" unicode="&#xf8;" horiz-adv-x="2029" 
d="M1016 1016q-233 0 -374.5 -106.5t-141.5 -280.5t159 -287l541 649q-94 25 -184 25zM1528 637q0 178 -174 293l-545 -654q111 -29 207 -28q236 0 374 105.5t138 283.5zM1898 633q0 -285 -227 -463q-262 -205 -655 -205q-207 0 -408 70l-106 -127h-203l162 192
q-330 190 -330 533q0 281 229 461q260 205 656 204q195 0 387 -63l74 86h202l-127 -152q346 -193 346 -536z" />
    <glyph glyph-name="ugrave" unicode="&#xf9;" horiz-adv-x="1923" 
d="M1751 430q0 -209 -213 -339q-212 -130 -576 -130t-579 133q-211 127 -211 336v830h360v-791q0 -103 111 -163t318 -60t319 59t111 164v791h360v-830zM1147 1372h-166l-285 381h293z" />
    <glyph glyph-name="uacute" unicode="&#xfa;" horiz-adv-x="1923" 
d="M1751 430q0 -209 -213 -339q-212 -130 -576 -130t-579 133q-211 127 -211 336v830h360v-791q0 -103 111 -163t318 -60t319 59t111 164v791h360v-830zM1235 1753l-285 -381h-166l158 381h293z" />
    <glyph glyph-name="ucircumflex" unicode="&#xfb;" horiz-adv-x="1923" 
d="M1751 430q0 -209 -213 -339q-212 -130 -576 -130t-579 133q-211 127 -211 336v830h360v-791q0 -103 111 -163t318 -60t319 59t111 164v791h360v-830zM1405 1368h-264l-178 193l-179 -193h-264l352 381h181z" />
    <glyph glyph-name="udieresis" unicode="&#xfc;" horiz-adv-x="1923" 
d="M1751 430q0 -209 -213 -339q-212 -130 -576 -130t-579 133q-211 127 -211 336v830h360v-791q0 -103 111 -163t318 -60t319 59t111 164v791h360v-830zM879 1546q0 -63 -44 -108q-45 -45 -109 -45t-110 45q-45 45 -45 108q0 62 45 108q44 46 108 46t110 -45q45 -46 45 -109
zM1354 1546q0 -63 -44 -108t-108 -45t-110 45q-45 45 -45 108q0 62 45 108t108 46t109 -45q45 -46 45 -109z" />
    <glyph glyph-name="yacute" unicode="&#xfd;" horiz-adv-x="1935" 
d="M1149 0h-361v485l-788 775h457l514 -508l508 508h456l-786 -775v-485zM1241 1753l-285 -381h-165l157 381h293z" />
    <glyph glyph-name="thorn" unicode="&#xfe;" horiz-adv-x="1837" 
d="M1231 563q82 0 130 41t48 109q0 133 -180 133h-664v-283h666zM1264 1130q225 0 363 -117t138 -313t-136 -308.5t-384 -112.5h-680v-279h-360v1260h360v-130h699z" />
    <glyph glyph-name="ydieresis" unicode="&#xff;" horiz-adv-x="1935" 
d="M1149 0h-361v485l-788 775h457l514 -508l508 508h456l-786 -775v-485zM885 1546q0 -63 -44 -108q-45 -45 -109 -45t-109 45t-45 108q0 62 45 108t108 46t109 -45q45 -46 45 -109zM1360 1546q0 -63 -44 -108t-108 -45t-110 45q-45 45 -45 108q0 62 45 108t108 46t109 -45
q45 -46 45 -109z" />
    <glyph glyph-name="dotlessi" unicode="&#x131;" horiz-adv-x="770" 
d="M565 0h-360v1260h360v-1260z" />
    <glyph glyph-name="Lslash" unicode="&#x141;" horiz-adv-x="1802" 
d="M1741 0h-1501v412l-99 -56v336l99 56v735h360v-531l481 275v-334l-481 -275v-333h1141v-285z" />
    <glyph glyph-name="lslash" unicode="&#x142;" horiz-adv-x="1603" 
d="M1516 0h-1330v346l-86 -49v289l86 49v625h361v-420l391 221v-287l-391 -223v-266h969v-285z" />
    <glyph glyph-name="OE" unicode="&#x152;" horiz-adv-x="3174" 
d="M1397 373v733q0 39 -41 65.5t-111 26.5h-172q-270 0 -437 -129t-167 -333t162 -327.5t444 -123.5h182q140 0 140 88zM3062 0h-1983q-444 0 -727 223q-250 197 -250 514t248 516q285 229 723 230h1931v-285h-1247v-303h866v-285h-866v-325h1305v-285z" />
    <glyph glyph-name="oe" unicode="&#x153;" horiz-adv-x="2772" 
d="M1233 399v451q0 53 -33 89t-76 36h-153q-223 0 -350 -93.5t-127 -255.5t122.5 -251.5t354.5 -89.5h172q37 0 63.5 31.5t26.5 82.5zM2650 0h-1673q-379 0 -612.5 177t-233.5 447t217 441q248 195 623 195h1630v-285h-1008v-205h684v-285h-684v-200h1057v-285z" />
    <glyph glyph-name="Scaron" unicode="&#x160;" horiz-adv-x="2095" 
d="M1036 1231q-469 0 -469 -156q0 -76 129 -106q82 -19 289 -29t272 -16q360 -33 519 -131q170 -102 170 -316q0 -244 -224 -378t-643 -134q-559 0 -962 279l196 241q375 -229 783 -229q219 0 346 57q121 57 121 150q0 88 -136 117q-76 16 -372 28q-446 18 -647 117
q-215 102 -215 321q0 218 215 346t612 128q543 0 872 -217l-204 -238q-307 166 -652 166zM1493 1980l-352 -381h-180l-353 381h264l179 -192l178 192h264z" />
    <glyph glyph-name="scaron" unicode="&#x161;" horiz-adv-x="1816" 
d="M889 1012q-375 0 -375 -121q0 -68 129 -88q186 -16 375 -33q354 -31 518 -116t164 -253q0 -205 -196 -323t-558 -117q-492 0 -883 256l187 225q283 -186 675 -186t392 119q0 57 -148 82q-84 14 -426 41q-600 47 -600 383q-1 193 189 307t526 112q500 0 789 -194
l-170 -225q-295 131 -588 131zM1354 1751l-353 -381h-180l-352 381h264l178 -192l179 192h264z" />
    <glyph glyph-name="Ydieresis" unicode="&#x178;" horiz-adv-x="2121" 
d="M1241 0h-360v578l-881 905h457l604 -619l604 619h457l-881 -905v-578zM977 1776q0 -62 -44 -108q-45 -46 -109 -46t-109 45t-45 109t45 108q45 45 108 45t109 -45t45 -108zM1452 1776q0 -62 -44 -108t-108 -46t-110 45q-45 45 -45 109t45 108q45 45 108 45q62 0 108 -45
t46 -108z" />
    <glyph glyph-name="Zcaron" unicode="&#x17d;" horiz-adv-x="1894" 
d="M1817 0h-1725v285l1190 909v4h-1171v285h1650v-285l-1192 -907v-6h1248v-285zM1393 1980l-353 -381h-180l-352 381h264l178 -192l178 192h265z" />
    <glyph glyph-name="zcaron" unicode="&#x17e;" horiz-adv-x="1693" 
d="M1604 0h-1518v285l989 684v6h-975v285h1456v-285l-987 -684v-6h1035v-285zM1292 1751l-352 -381h-180l-352 381h264l178 -192l178 192h264z" />
    <glyph glyph-name="florin" unicode="&#x192;" horiz-adv-x="1253" 
d="M1024 881v-256h-262l-115 -588q-23 -121 -127 -201t-220 -80t-290 56l82 276q100 -47 146 -47q66 0 81 78l105 506h-188v256h235q47 332 155.5 480t321.5 148q138 0 275 -86l-107 -252q-72 53 -146 53t-100 -73q-8 -20 -57 -270h211z" />
    <glyph glyph-name="circumflex" unicode="&#x2c6;" 
d="M954 1368h-264l-178 193l-178 -193h-264l352 381h180z" />
    <glyph glyph-name="caron" unicode="&#x2c7;" 
d="M956 1751l-352 -381h-180l-352 381h264l178 -192l178 192h264z" />
    <glyph glyph-name="breve" unicode="&#x2d8;" 
d="M514 1368q-266 0 -328 305h211q13 -117 113 -117t115 117h209q-54 -305 -320 -305z" />
    <glyph glyph-name="dotaccent" unicode="&#x2d9;" 
d="M666 1550.5q0 -63.5 -44 -108.5t-108 -45t-110 45t-46 108.5t45.5 108.5t108.5 45t108.5 -45t45.5 -108.5z" />
    <glyph glyph-name="ring" unicode="&#x2da;" 
d="M618 1578q0 30 -29.5 52.5t-72.5 22.5t-71.5 -22.5t-28.5 -53.5t27.5 -52.5t71.5 -21.5t73.5 22.5t29.5 52.5zM770 1577q0 -88 -71.5 -148.5t-180 -60.5t-179.5 60.5t-71 148.5t72 149.5t180 61.5t179 -61.5t71 -149.5z" />
    <glyph glyph-name="ogonek" unicode="&#x2db;" 
d="M542 -422q-114 0 -183.5 57.5t-69.5 147.5q0 160 235 231h193q-195 -76 -195 -204q0 -104 101 -105q43 0 116 29l41 -115q-124 -41 -238 -41z" />
    <glyph glyph-name="tilde" unicode="&#x2dc;" 
d="M649 1405q-63 0 -152 38t-108 38q-47 0 -106 -109l-158 123q154 182 252 182q55 0 143 -40t117 -40q39 0 108 105l142 -98q-98 -199 -238 -199z" />
    <glyph glyph-name="hungarumlaut" unicode="&#x2dd;" 
d="M625 1751l-244 -381h-164l119 381h289zM1024 1751l-244 -381h-164l119 381h289z" />
    <glyph glyph-name="Delta" unicode="&#x394;" horiz-adv-x="1253" 
d="M147 66h818l-406 1005zM1219 0h-1176l565 1376h45z" />
    <glyph glyph-name="Delta" unicode="&#x2206;" horiz-adv-x="1253" 
d="M147 66h818l-406 1005zM1219 0h-1176l565 1376h45z" />
    <glyph glyph-name="Omega" unicode="&#x3a9;" horiz-adv-x="1572" 
d="M1214 184q98 0 135 34t46 142h47l-21 -360h-516v348q154 31 239 163t85 337t-121 343t-321.5 138t-321.5 -137t-121 -343t84 -338t240 -163v-348h-516l-21 360h47q6 -106 44 -141t136 -35h252v121q-244 45 -376 183.5t-132 347.5q0 246 187.5 396t497 150t496.5 -150.5
t187 -395.5q0 -207 -132 -346.5t-375 -184.5v-121h251z" />
    <glyph glyph-name="Omega" unicode="&#x2126;" horiz-adv-x="1572" 
d="M1214 184q98 0 135 34t46 142h47l-21 -360h-516v348q154 31 239 163t85 337t-121 343t-321.5 138t-321.5 -137t-121 -343t84 -338t240 -163v-348h-516l-21 360h47q6 -106 44 -141t136 -35h252v121q-244 45 -376 183.5t-132 347.5q0 246 187.5 396t497 150t496.5 -150.5
t187 -395.5q0 -207 -132 -346.5t-375 -184.5v-121h251z" />
    <glyph glyph-name="pi" unicode="&#x3c0;" horiz-adv-x="1124" 
d="M819 337q-1 -167 15 -218t74 -51t84 55t26 186h51q0 -330 -217 -329q-133 0 -178 108q-33 84 -33 309l8 377h-280q0 -459 -27 -602q-39 -193 -164 -192q-94 0 -125 98q-18 55 -18 176h49q2 -106 76 -107q92 -1 124 141t35 486h-45q-158 0 -178 -106h-47q8 143 81 197
t245 55h520q135 0 135 45v2h47v-6q0 -102 -46 -144.5t-154 -42.5q-34 -2 -50 0q-8 -270 -8 -437z" />
    <glyph glyph-name="endash" unicode="&#x2013;" horiz-adv-x="1859" 
d="M1716 485h-1573v285h1573v-285z" />
    <glyph glyph-name="emdash" unicode="&#x2014;" horiz-adv-x="2164" 
d="M2021 485h-1878v285h1878v-285z" />
    <glyph glyph-name="quoteleft" unicode="&#x2018;" horiz-adv-x="655" 
d="M500 887h-377v348q0 248 283 248h86v-170h-25q-143 0 -143 -76v-66h176v-284z" />
    <glyph glyph-name="quoteright" unicode="&#x2019;" horiz-adv-x="622" 
d="M500 1135q0 -248 -283 -248h-86v170h23q145 0 145 76v65h-176v285h377v-348z" />
    <glyph glyph-name="quotesinglbase" unicode="&#x201a;" horiz-adv-x="786" 
d="M582 -63q0 -248 -283 -248h-86v170h23q145 0 145 75v66h-176v285h377v-348z" />
    <glyph glyph-name="quotedblleft" unicode="&#x201c;" horiz-adv-x="1193" 
d="M500 887h-377v348q0 248 283 248h86v-170h-25q-143 0 -143 -76v-66h176v-284zM1038 887h-376v348q0 248 282 248h86v-170h-22q-145 0 -146 -76v-66h176v-284z" />
    <glyph glyph-name="quotedblright" unicode="&#x201d;" horiz-adv-x="1161" 
d="M500 1135q0 -248 -283 -248h-86v170h23q145 0 145 76v65h-176v285h377v-348zM1038 1135q0 -248 -282 -248h-86v170h24q143 0 144 76v65h-176v285h376v-348z" />
    <glyph glyph-name="quotedblbase" unicode="&#x201e;" horiz-adv-x="1325" 
d="M582 -63q0 -248 -283 -248h-86v170h23q145 0 145 75v66h-176v285h377v-348zM1120 -63q0 -248 -282 -248h-86v170h24q143 0 144 75v66h-177v285h377v-348z" />
    <glyph glyph-name="dagger" unicode="&#x2020;" horiz-adv-x="1062" 
d="M973 907h-299l49 -1054h-385l43 1054h-305v301h293l-37 416h393l-41 -416h289v-301z" />
    <glyph glyph-name="daggerdbl" unicode="&#x2021;" horiz-adv-x="1126" 
d="M1014 907h-299l14 -350h283v-301h-269l21 -403h-385l16 403h-280v301h293l14 350h-305v301h293l-37 416h393l-41 -416h289v-301z" />
    <glyph glyph-name="bullet" unicode="&#x2022;" horiz-adv-x="1064" 
d="M905 740q0 -144 -108 -248t-263 -105q-155 1 -264 105t-108.5 247.5t108.5 247.5q108 105 264 105t263 -104q108 -104 108 -248z" />
    <glyph glyph-name="ellipsis" unicode="&#x2026;" horiz-adv-x="1669" 
d="M737 991q-311 0 -311 -139q0 -145 291 -145q237 -1 405 155q-119 129 -385 129zM722 459q-292 0 -464 105.5t-172 295.5t175 303t511 113t552 -180.5t216 -462.5q0 -219 -139 -383q-231 -272 -639 -272t-656 239l222 180q131 -143 424 -143q180 0 287.5 85t158.5 267
q-184 -147 -476 -147z" />
    <glyph glyph-name="perthousand" unicode="&#x2030;" horiz-adv-x="3317" 
d="M750 1112q0 64 -48.5 109t-118 45t-117.5 -46t-48 -108t48 -108t117.5 -46t118 45t48.5 109zM1925 372q0 62 -49 108t-118 46t-117 -46t-48 -109.5t47.5 -107.5t117.5 -44t118.5 45.5t48.5 107.5zM2896 372q0 62 -49 108t-119 46t-118 -46t-48 -108t48 -107.5t119 -45.5
t119 45.5t48 107.5zM1024 1113q0 -169 -127 -285.5t-313.5 -116.5t-313.5 116.5t-127 282.5q0 129 78 229q133 174 363 174q174 0 307 -115.5t133 -284.5zM2015 1483l-1323 -1503h-364l1325 1503h362zM1757 774q175 0 309 -116t134 -284q0 -169 -128 -286t-308 -117
t-313 114q-132 114 -132 286q0 127 78 229q131 174 360 174zM2728 774q174 0 308 -116t134 -284q0 -169 -128 -286t-314 -117t-313 117t-127 283q0 129 77 229q133 174 363 174z" />
    <glyph glyph-name="guilsinglleft" unicode="&#x2039;" horiz-adv-x="1097" 
d="M958 991l-374 -334l370 -331h-430l-385 331l393 334h426z" />
    <glyph glyph-name="guilsinglright" unicode="&#x203a;" horiz-adv-x="1097" 
d="M958 657l-385 -331h-430l371 331l-375 334h426z" />
    <glyph glyph-name="fraction" unicode="&#x2044;" horiz-adv-x="600" 
d="M1145 1483l-1325 -1503h-365l1327 1503h363z" />
    <glyph glyph-name="trademark" unicode="&#x2122;" horiz-adv-x="837" 
d="M313 1395h-104v-273h-84v273h-105v67h293v-67zM770 1122h-80v256l-94 -256h-37l-96 256v-256h-82v340h119l80 -205l73 205h117v-340z" />
    <glyph glyph-name="partialdiff" unicode="&#x2202;" horiz-adv-x="1011" 
d="M524 715q-106 0 -176 -122t-69 -331q0 -244 172 -244q106 0 176.5 126t70.5 315q0 256 -174 256zM758 891q0 342 -129 342q-41 0 -103.5 -71.5t-113.5 -71.5q-76 0 -76 65q0 57 59.5 101t149.5 44q158 0 252 -141q96 -150 96 -407q0 -340 -133 -560t-322 -219
q-137 1 -224 103t-87 278t108.5 300t256.5 124q178 0 241 -190q25 92 25 303z" />
    <glyph glyph-name="product" unicode="&#x220f;" horiz-adv-x="1685" 
d="M242 -377v1835h-181v66h1571v-66h-180v-1835h180v-65h-540v65h172v1835h-834v-1835h172v-65h-541v65h181z" />
    <glyph glyph-name="summation" unicode="&#x2211;" horiz-adv-x="1460" 
d="M686 1458h-291l666 -913l-735 -807h434q233 0 342 58t180 245h72q-20 -88 -109 -483h-1171l815 893l-787 1073h1127l67 -471h-69q-68 221 -188.5 313t-352.5 92z" />
    <glyph glyph-name="radical" unicode="&#x221a;" horiz-adv-x="1124" 
d="M1217 1565h-117l-594 -1606h-66l-319 883l-125 -45l-25 80l283 98l256 -709l516 1395h191v-96z" />
    <glyph glyph-name="infinity" unicode="&#x221e;" horiz-adv-x="1460" 
d="M1061 365q104 0 171.5 71.5t67.5 185.5t-61 182t-164 68q-158 1 -305 -331q94 -176 291 -176zM399 860q-104 0 -171.5 -71.5t-67.5 -184t61.5 -182.5t153.5 -70q93 0 163 81t150 251q-96 176 -289 176zM428 233q-131 0 -225 106.5t-94 273.5t82.5 272.5t216.5 105.5
q186 0 303 -254q129 254 321 254q131 0 224.5 -106.5t93.5 -273.5t-82 -272.5t-215 -105.5q-190 0 -303 254q-133 -254 -322 -254z" />
    <glyph glyph-name="integral" unicode="&#x222b;" horiz-adv-x="561" 
d="M580 1550q72 0 118.5 -37.5t46.5 -99.5q0 -98 -100 -98q-59 0 -89 75.5t-60 75.5q-78 0 -99 -223q-6 -66 -24 -628t-97 -746q-102 -240 -294 -240q-72 0 -119 38t-47 100q0 96 100 96q59 0 90 -75t62 -75q74 0 96 224q8 91 24 637t97 737q100 239 295 239z" />
    <glyph glyph-name="approxequal" unicode="&#x2248;" horiz-adv-x="1124" 
d="M788 254q-66 0 -211 48t-249 48t-291 -133v141q182 117 323 117q74 0 164 -28t160 -49t115 -21q109 0 288 131v-143q-162 -111 -299 -111zM788 498q-68 0 -212 48t-228 48q-123 0 -311 -133v141q176 115 321 115q74 0 165 -28t175 -54q57 -14 101 -14q111 0 288 129v-142
q-166 -110 -299 -110z" />
    <glyph glyph-name="approxequal" unicode="&#x22f2;" horiz-adv-x="1124" 
d="M788 254q-66 0 -211 48t-249 48t-291 -133v141q182 117 323 117q74 0 164 -28t160 -49t115 -21q109 0 288 131v-143q-162 -111 -299 -111zM788 498q-68 0 -212 48t-228 48q-123 0 -311 -133v141q176 115 321 115q74 0 165 -28t175 -54q57 -14 101 -14q111 0 288 129v-142
q-166 -110 -299 -110z" />
    <glyph glyph-name="notequal" unicode="&#x2260;" horiz-adv-x="1124" 
d="M98 285v118h303l162 160h-465v119h572l239 240l82 -82l-160 -158h195v-119h-301l-162 -160h463v-118h-571l-240 -240l-80 82l158 158h-195z" />
    <glyph glyph-name="lessequal" unicode="&#x2264;" horiz-adv-x="1124" 
d="M94 0v127h936v-127h-936zM96 553v125l934 293v-131l-719 -226l719 -223v-131z" />
    <glyph glyph-name="greaterequal" unicode="&#x2265;" horiz-adv-x="1124" 
d="M94 0v127h936v-127h-936zM94 260v131l719 223l-719 226v131l936 -293v-125z" />
    <glyph glyph-name="lozenge" unicode="&#x25ca;" horiz-adv-x="1011" 
d="M506 1409l-385 -817l385 -825l385 825zM506 1653l500 -1061l-500 -1069l-500 1069z" />
    <glyph glyph-name="fi" unicode="&#xf001;" horiz-adv-x="2445" 
d="M1573 975h-1008v-205h684v-285h-684v-485h-360v1260h1368v-285zM2241 0h-361v1260h361v-1260z" />
    <glyph glyph-name="fl" unicode="&#xf002;" horiz-adv-x="3280" 
d="M1573 975h-1008v-205h684v-285h-684v-485h-360v1260h1368v-285zM3193 0h-1329v1260h360v-975h969v-285z" />
    <glyph glyph-name="glyph246" horiz-adv-x="614" 
 />
    </font>
</defs>
</svg>
