<?xml version="1.0" standalone="no"?>
<!DOCTYPE svg PUBLIC "-//W3C//DTD SVG 1.1//EN" "http://www.w3.org/Graphics/SVG/1.1/DTD/svg11.dtd" >
<svg xmlns="http://www.w3.org/2000/svg">
<metadata>
Created by FontPrep 20130207 at Thu Mar 20 11:07:51 2014
 By Olivier van Helden
(c) Copyright 1995-1997 International Typeface Corporation  All rights reserved.
</metadata>
<defs>
<font id="60e7bdf4bd930130156eb74bcbc6f9d1" horiz-adv-x='1024' >
  <font-face 
    font-family="BlairITCTTLight"
    font-weight="300"
    font-stretch="normal"
    units-per-em="2048"
    panose-1="0 0 3 0 0 0 0 0 0 0"
    ascent="1638"
    descent="-410"
    x-height="1260"
    cap-height="1483"
    bbox="-434 -483 3056 1898"
    underline-thickness="129"
    underline-position="-98"
    unicode-range="U+0020-F002"
  />
<missing-glyph 
d="M256 129h512v1323h-512v-1323zM129 0v1579h768v-1579h-768z" />
    <glyph glyph-name=".notdef" 
d="M256 129h512v1323h-512v-1323zM129 0v1579h768v-1579h-768z" />
    <glyph glyph-name=".null" horiz-adv-x="0" 
 />
    <glyph glyph-name="nonmarkingreturn" horiz-adv-x="552" 
 />
    <glyph glyph-name="space" unicode=" " horiz-adv-x="552" 
 />
    <glyph glyph-name="exclam" unicode="!" horiz-adv-x="655" 
d="M451 0h-246v129h246v-129zM422 1483v-60l-31 -1128h-125l-30 1188h186z" />
    <glyph glyph-name="quotedbl" unicode="&#x22;" horiz-adv-x="569" 
d="M473 1434v-553h-102v553h102zM199 1434v-553h-101v553h101z" />
    <glyph glyph-name="numbersign" unicode="#" horiz-adv-x="1867" 
d="M1163 1094h-407l-56 -363h408zM1464 1094h-196l-56 -363h187v-102h-203l-55 -391h-107l60 391h-406l-59 -391h-107l60 391h-201v102h215l55 363h-198v102h213l45 287h102l-43 -287h408l45 287h100l-41 -287h182v-102z" />
    <glyph glyph-name="dollar" unicode="$" horiz-adv-x="1867" 
d="M1513 412q0 297 -530 303v-625q256 8 393 93t137 229zM862 836v544q-487 -10 -487 -299q0 -129 118.5 -187t368.5 -58zM1649 424q0 -432 -666 -444v-115h-121v117q-426 29 -643 215l62 98q260 -178 581 -201v625q-623 0 -622 348q0 403 622 426v78h121v-80
q369 -18 569 -145l-79 -99q-231 123 -490 129v-549q340 -4 503 -100t163 -303z" />
    <glyph glyph-name="percent" unicode="%" horiz-adv-x="2207" 
d="M848 1111q0 124 -80 212t-188.5 88t-187.5 -88t-79 -213t78 -212t188.5 -87t189.5 88t79 212zM1892 374q0 124 -79.5 212t-188 88t-187.5 -88t-79 -213t77.5 -212t188.5 -87t189.5 88t78.5 212zM962.5 1110q0.5 -166 -112.5 -282.5t-270.5 -116t-267.5 114.5t-111 283
t111 287t267 118t269 -120q114 -118 114.5 -284zM1812 1483l-1253 -1503h-164l1256 1503h161zM1624.5 776q155.5 0 269.5 -118t113 -283q0 -166 -114 -284t-269.5 -118t-266.5 116t-111.5 283.5t111.5 285.5t267.5 118z" />
    <glyph glyph-name="ampersand" unicode="&#x26;" horiz-adv-x="1988" 
d="M338 393q0 -133 112.5 -215t318.5 -82t458 156q-236 229 -412 493q-477 -82 -477 -352zM1233 1148q0 106 -63.5 168t-167.5 62t-172 -66.5t-68 -182.5t106 -255q176 18 270.5 93t94.5 181zM190 393q0 336 555 457q-115 170 -115 310t106 240.5t267 100.5t260 -96t99 -248
q0 -299 -428 -381q162 -246 385 -446q141 100 262 391h135q-129 -324 -309 -471q178 -106 391 -123v-129q-262 25 -483 166q-250 -190 -588 -191q-240 0 -388.5 119t-148.5 301z" />
    <glyph glyph-name="quotesingle" unicode="'" horiz-adv-x="294" 
d="M199 1434v-553h-101v553h101z" />
    <glyph glyph-name="parenleft" unicode="(" horiz-adv-x="907" 
d="M250 665q0 452 170 734q129 217 334 225v-70q-129 -8 -215 -161q-158 -283 -158 -705t121 -686q96 -213 252 -221v-70q-205 6 -336 223q-168 279 -168 731z" />
    <glyph glyph-name="parenright" unicode=")" horiz-adv-x="907" 
d="M657 665q0 -447 -170 -731q-131 -217 -333 -223v70q154 10 249 221q123 270 123 688t-157 703q-84 152 -215 161v70q205 -8 333 -225q170 -287 170 -734z" />
    <glyph glyph-name="asterisk" unicode="*" horiz-adv-x="1269" 
d="M1049 1145l-351 -86l252 -283l-100 -74l-205 316l-192 -328l-103 74l238 291l-367 71l39 121l346 -133l-41 369h125l-18 -371l338 152z" />
    <glyph glyph-name="plus" unicode="+" horiz-adv-x="688" 
d="M440 0h-133v1130l-203 -92v109q115 47 205 113h131v-1260z" />
    <glyph glyph-name="comma" unicode="," horiz-adv-x="655" 
d="M451 -61q0 -168 -199 -168h-33v61q127 10 127 105v63h-141v129h246v-190z" />
    <glyph glyph-name="hyphen" unicode="-" horiz-adv-x="894" 
d="M772 598h-649v129h649v-129z" />
    <glyph glyph-name="hyphen" unicode="&#x2010;" horiz-adv-x="894" 
d="M772 598h-649v129h649v-129z" />
    <glyph glyph-name="period" unicode="." horiz-adv-x="655" 
d="M451 0h-246v129h246v-129z" />
    <glyph glyph-name="slash" unicode="/" horiz-adv-x="1034" 
d="M1038 1483l-878 -1503h-164l881 1503h161z" />
    <glyph glyph-name="zero" unicode="0" horiz-adv-x="1812" 
d="M1495 740q0 331 -256 524q-150 113 -334 112.5t-334 -112.5q-254 -193 -254 -522.5t254 -526.5q147 -115 334 -115t336 115q254 194 254 525zM1630 740q0 -189 -83 -354t-234 -275q-185 -135 -409 -135t-408 135q-150 111 -232 275.5t-82 355t82 355.5t232 273
q182 133 409.5 133t409.5 -133q150 -111 232.5 -276t82.5 -354z" />
    <glyph glyph-name="one" unicode="1" horiz-adv-x="700" 
d="M453 0h-134v1358l-237 -109v103q129 51 237 131h134v-1483z" />
    <glyph glyph-name="two" unicode="2" horiz-adv-x="1605" 
d="M1477 0h-1393q26 396 324 570q114 66 299 132q16 6 192 60t250 98q139 82 139 218t-128 218t-351 82q-299 0 -561 -204l-80 98q307 231 643 231q283 0 454 -118.5t171 -303.5q0 -154 -94.5 -248t-303.5 -157q-346 -102 -458 -154q-266 -125 -347 -393h1244v-129z" />
    <glyph glyph-name="three" unicode="3" horiz-adv-x="1642" 
d="M1479 410q0 -211 -187.5 -323t-546.5 -112q-229 -1 -391 61t-291 206l82 104q211 -242 598 -242q584 0 584 322q0 279 -659 279h-76v116q41 -2 121 -2q547 0 547 285q0 129 -120 201.5t-337 72.5q-295 0 -553 -174l-78 99q314 201 616 201t464.5 -105t162.5 -287
q0 -250 -301 -340q365 -66 365 -362z" />
    <glyph glyph-name="four" unicode="4" horiz-adv-x="1599" 
d="M1063 440v889l-873 -889h873zM1538 311h-342v-311h-133v311h-1002v131l1002 1041h133v-1043h342v-129z" />
    <glyph glyph-name="five" unicode="5" horiz-adv-x="1636" 
d="M799 942q301 0 490 -139t189 -351t-177 -344.5t-480 -132.5q-479 0 -731 254l125 68q276 -195 584 -195q246 0 389 99.5t143 257.5t-148.5 258t-416.5 100t-528 -174l-138 113l215 727h1055v-129h-964l-164 -559q256 147 557 147z" />
    <glyph glyph-name="six" unicode="6" horiz-adv-x="1785" 
d="M965 104q229 0 359 90.5t130 239.5t-135 241.5t-340 92.5t-361.5 -88t-248.5 -244q174 -332 596 -332zM961 895q305 0 509 -170q139 -117 140 -289q0 -205 -172 -332q-180 -129 -482 -129q-350 0 -572 216t-222 544q0 246 135 436q113 158 287 245t377 87q336 0 557 -221
l-101 -84q-164 180 -491 180q-279 0 -449 -178t-170 -477q1 -71 15 -141q238 313 639 313z" />
    <glyph glyph-name="seven" unicode="7" horiz-adv-x="1492" 
d="M49 1354v129h1374v-129l-940 -1354h-164l947 1354h-1217z" />
    <glyph glyph-name="eight" unicode="8" horiz-adv-x="1732" 
d="M1430 397q0 141 -146.5 220t-426.5 79t-429 -78t-149 -216t152.5 -219t427.5 -81t423 77t148 218zM1348 1105q0 132 -126 202.5t-362 70.5t-360.5 -70.5t-124.5 -201.5t127 -209t359 -78t359.5 77t127.5 209zM1589 383q0 -190 -188.5 -299t-540.5 -109t-540.5 107.5
t-188.5 298.5q0 311 459 385q-170 31 -263.5 121t-93.5 221q0 182 165 288.5t460 106.5t461 -107.5t166 -287.5q-1 -264 -355 -342q459 -78 459 -383z" />
    <glyph glyph-name="nine" unicode="9" horiz-adv-x="1779" 
d="M770 1378q-228 0 -354.5 -89t-126.5 -243t131 -245.5t338 -91.5t371 90t260 254q-117 180 -254 252.5t-365 72.5zM772 586q-270 0 -448.5 122.5t-178.5 326.5t176.5 335t475.5 131q367 0 588 -210t221 -546q0 -211 -101.5 -385t-291 -279.5t-406.5 -105.5
q-346 0 -576 230l82 92q201 -195 496 -195q215 0 375 111q127 88 199.5 226.5t72.5 295.5q1 90 -22 174q-117 -154 -291 -238.5t-371 -84.5z" />
    <glyph glyph-name="colon" unicode=":" horiz-adv-x="655" 
d="M451 0h-246v129h246v-129zM451 840h-246v129h246v-129z" />
    <glyph glyph-name="semicolon" unicode=";" horiz-adv-x="655" 
d="M451 -61q0 -168 -199 -168h-33v61q127 10 127 105v63h-141v129h246v-190zM451 840h-246v129h246v-129z" />
    <glyph glyph-name="less" unicode="&#x3c;" horiz-adv-x="1402" 
d="M1284 0h-1204q16 244 149 387t407.5 226t344.5 122q119 63 119 175t-103.5 177.5t-281.5 65.5q-268 0 -486 -172l-82 94q264 201 562 201q248 0 394 -100.5t146 -268.5q0 -207 -235 -301q-39 -16 -202 -63t-224 -68t-121 -57q-166 -102 -225 -289h1042v-129z" />
    <glyph glyph-name="equal" unicode="=" horiz-adv-x="1396" 
d="M1237 342q0 -172 -163 -267t-470 -95q-381 0 -594 231l78 94q211 -197 514 -196q485 0 485 258q0 231 -579 231h-45v113q41 -2 115 -2q453 0 452 223q0 104 -98 162.5t-279 58.5q-250 0 -477 -145l-74 94q279 176 538 176t401.5 -90t142.5 -238q0 -209 -236 -291
q289 -70 289 -317z" />
    <glyph glyph-name="greater" unicode="&#x3e;" horiz-adv-x="1359" 
d="M891 389v709l-709 -709h709zM1315 260h-291v-260h-133v260h-852v125l858 875h127v-871h291v-129z" />
    <glyph glyph-name="question" unicode="?" horiz-adv-x="1400" 
d="M713 0h-246v129h246v-129zM705 1505q281 0 437 -112.5t156 -307.5q0 -147 -91 -224t-386 -167q-53 -20 -86 -49q-90 -78 -90 -303v-47h-137l2 82q4 197 79 303t245 164q84 23 215 76q98 61 98 183t-120 197.5t-337 75.5q-289 0 -504 -202l-106 77q223 254 625 254z" />
    <glyph glyph-name="at" unicode="@" horiz-adv-x="1667" 
d="M961 781q0 153 -109 153q-88 0 -158 -109q-72 -117 -71 -280q0 -131 104 -131q92 0 163 107t71 260zM809 -18q-299 0 -481.5 185t-182.5 488q-1 209 111 369t268 242t328 82q268 0 469 -169t201 -429q0 -143 -72 -263q-125 -207 -358 -206q-129 0 -177 112
q-92 -71 -196 -71t-164.5 67.5t-60.5 183.5q0 182 111.5 308.5t275.5 126.5q66 0 123 -37l16 37h131q-135 -430 -135 -527q0 -117 98 -116q121 0 192.5 101t71.5 277q0 221 -146 359.5t-388 138.5t-396.5 -160.5t-154.5 -425.5q0 -565 573 -567v-106h-57z" />
    <glyph glyph-name="A" unicode="A" horiz-adv-x="1781" 
d="M1348 514l-445 840h-18l-447 -840h910zM1772 0h-154l-203 385h-1044l-207 -385h-154l785 1483h196z" />
    <glyph glyph-name="B" unicode="B" horiz-adv-x="2060" 
d="M1419 129q330 0 330 270q0 133 -88 211t-238 78h-1032v-559h1028zM1403 817q129 0 213 80t84 198t-73 188.5t-193 70.5h-1043v-537h1012zM1888 391q0 -180 -125 -285.5t-342 -105.5h-1163v1483h1153q205 0 318.5 -101.5t113.5 -277.5q0 -248 -258 -344q303 -96 303 -369z
" />
    <glyph glyph-name="C" unicode="C" horiz-adv-x="1992" 
d="M1063 1405q-303 0 -510 -164q-240 -191 -240 -491t207 -482t543 -182q436 0 649 246l111 -72q-227 -301 -742 -301q-285 -1 -493 109t-312 283t-104 394q0 356 274 582q248 203 617 203q512 0 768 -330l-119 -47q-240 252 -649 252z" />
    <glyph glyph-name="D" unicode="D" horiz-adv-x="2097" 
d="M1200 129q250 0 411 175q161 174 161 440t-169 438t-442 172h-770v-1225h809zM1141 1483q365 0 574.5 -203.5t209.5 -535.5t-210 -538t-525 -206h-932v1483h883z" />
    <glyph glyph-name="E" unicode="E" horiz-adv-x="1783" 
d="M1698 0h-1440v1483h1382v-129h-1249v-504h869v-129h-869v-592h1307v-129z" />
    <glyph glyph-name="F" unicode="F" horiz-adv-x="1671" 
d="M1640 1354h-1249v-504h869v-129h-869v-721h-133v1483h1382v-129z" />
    <glyph glyph-name="G" unicode="G" horiz-adv-x="2125" 
d="M1065 -43q-375 0 -623 205q-270 223 -270 578q0 354 262 572t631 218q467 0 745 -311l-122 -78q-258 264 -623 264q-311 0 -520 -174q-229 -191 -229 -487t206.5 -478t542.5 -182q289 0 475 134t252 390h-786v129h948q-23 -297 -152 -461q-254 -319 -737 -319z" />
    <glyph glyph-name="H" unicode="H" horiz-adv-x="2080" 
d="M1823 0h-133v721h-1299v-721h-133v1483h133v-633h1299v633h133v-1483z" />
    <glyph glyph-name="I" unicode="I" horiz-adv-x="649" 
d="M391 0h-133v1483h133v-1483z" />
    <glyph glyph-name="J" unicode="J" horiz-adv-x="1503" 
d="M1268 461q0 -504 -617 -504q-283 0 -431 124t-148 359h125q2 -188 108.5 -272t352.5 -84t361.5 85t115.5 290v1024h133v-1022z" />
    <glyph glyph-name="K" unicode="K" horiz-adv-x="1804" 
d="M391 0h-133v1483h133v-873l1112 873h195l-699 -545l791 -938h-160l-731 858l-508 -399v-459z" />
    <glyph glyph-name="L" unicode="L" horiz-adv-x="1546" 
d="M1536 0h-1278v1483h133v-1354h1145v-129z" />
    <glyph glyph-name="M" unicode="M" horiz-adv-x="2441" 
d="M2183 0h-133v1354h-8l-821 -1057l-824 1057h-6v-1354h-133v1483h207l756 -989l757 989h205v-1483z" />
    <glyph glyph-name="N" unicode="N" horiz-adv-x="2088" 
d="M1831 0h-189l-1251 1354v-1354h-133v1483h193l1247 -1354v1354h133v-1483z" />
    <glyph glyph-name="O" unicode="O" horiz-adv-x="2131" 
d="M1819 748q0 300 -242 491q-211 166 -511 166t-509 -166q-240 -189 -240 -491t206 -483t544 -181t545 182t207 482zM1960 741q0 -356 -274 -581q-248 -203 -620 -203t-620 203q-274 225 -274 581t277 584q249 205 617 205t617 -205q277 -228 277 -584z" />
    <glyph glyph-name="P" unicode="P" horiz-adv-x="1869" 
d="M1366 737q147 0 228 81t81 229q0 307 -358 307h-926v-617h975zM1376 1483q207 0 327 -119t120 -321t-129 -318.5t-353 -116.5h-950v-608h-133v1483h1118z" />
    <glyph glyph-name="Q" unicode="Q" horiz-adv-x="2152" 
d="M1829 745q1 299 -221 481t-531 181.5t-529 -182.5q-220 -183 -220 -479t204.5 -477t544.5 -181q111 0 207 21l-190 219l120 37l191 -222q424 168 424 602zM1077 -41q-375 0 -622 205q-273 223 -273 578t275 583q249 207 619 207t620 -207q274 -227 274 -580
q0 -489 -473 -702l199 -219l-129 -39l-187 217q-154 -43 -303 -43z" />
    <glyph glyph-name="R" unicode="R" horiz-adv-x="2002" 
d="M1366 737q147 0 228 81t81 229q0 307 -358 307h-926v-617h975zM391 608v-608h-133v1483h1118q205 0 326 -120.5t121 -316.5t-116 -309.5t-331 -128.5l451 -608h-162l-465 608h-809z" />
    <glyph glyph-name="S" unicode="S" horiz-adv-x="1906" 
d="M352 1109q0 -136 142 -194q124 -51 402 -62t405 -25t225 -56q217 -94 217 -324t-197.5 -356.5t-566.5 -126.5q-500 0 -815 219l78 113q324 -207 708 -207q307 0 472 91t165 248t-149 222q-133 59 -411 71t-401 25q-429 42 -429 345q0 201 186 314.5t530 113.5
q465 0 719 -170l-94 -103q-268 147 -616 148q-276 0 -423 -75t-147 -211z" />
    <glyph glyph-name="T" unicode="T" horiz-adv-x="1570" 
d="M1561 1354h-709v-1354h-133v1354h-709v129h1551v-129z" />
    <glyph glyph-name="U" unicode="U" horiz-adv-x="2080" 
d="M1823 463q0 -225 -211 -365q-210 -140 -568 -141q-358 0 -572 141.5t-214 364.5v1020h133v-969q0 -428 649 -428t650 428v969h133v-1020z" />
    <glyph glyph-name="V" unicode="V" horiz-adv-x="1701" 
d="M1692 1483l-740 -1483h-202l-740 1483h156l686 -1374l684 1374h156z" />
    <glyph glyph-name="W" unicode="W" horiz-adv-x="2224" 
d="M2187 1483l-477 -1483h-203l-405 1366l-385 -1366h-205l-475 1483h151l422 -1368l389 1368h207l408 -1366l422 1366h151z" />
    <glyph glyph-name="X" unicode="X" horiz-adv-x="1685" 
d="M1634 0h-174l-618 662l-615 -662h-176l707 752l-680 731h176l588 -637l592 637h174l-678 -731z" />
    <glyph glyph-name="Y" unicode="Y" horiz-adv-x="1624" 
d="M881 0h-133v596l-738 887h162l639 -754l641 754h162l-733 -887v-596z" />
    <glyph glyph-name="Z" unicode="Z" horiz-adv-x="1624" 
d="M1552 0h-1497v129l1241 1225h-1224v129h1425v-129l-1270 -1225h1325v-129z" />
    <glyph glyph-name="bracketleft" unicode="[" horiz-adv-x="761" 
d="M672 -289h-467v1913h467v-70h-334v-1773h334v-70z" />
    <glyph glyph-name="backslash" unicode="\" horiz-adv-x="1034" 
d="M1038 -20h-164l-878 1503h162z" />
    <glyph glyph-name="bracketright" unicode="]" horiz-adv-x="772" 
d="M557 -289h-465v70h334v1773h-334v70h465v-1913z" />
    <glyph glyph-name="asciicircum" unicode="^" horiz-adv-x="1413" 
d="M692 805q272 0 433 -118t161 -300t-153.5 -294.5t-415.5 -112.5q-412 0 -637 225l110 69q248 -168 510 -168q203 0 323 81t120 208t-125.5 211t-351.5 84t-457 -149l-117 98l189 621h913v-130h-829l-146 -456q201 131 473 131z" />
    <glyph glyph-name="underscore" unicode="_" 
d="M1024 -383v-100h-1024v100h1024z" />
    <glyph glyph-name="grave" unicode="`" 
d="M578 1368h-68l-213 285h162z" />
    <glyph glyph-name="a" unicode="a" horiz-adv-x="1552" 
d="M1147 451l-367 682h-4l-368 -682h739zM1542 0h-156l-172 322h-874l-176 -322h-154l678 1260h178z" />
    <glyph glyph-name="b" unicode="b" horiz-adv-x="1806" 
d="M1227 129q270 0 270 215q0 104 -71.5 166.5t-194.5 62.5h-869v-444h865zM1212 702q104 0 174 66t70 158t-59.5 148t-157.5 56h-877v-428h850zM1636 338q0 -154 -109.5 -246t-297.5 -92h-1000v1260h992q176 0 276 -89.5t100 -238.5q0 -189 -188 -285q227 -100 227 -309z
" />
    <glyph glyph-name="c" unicode="c" horiz-adv-x="1714" 
d="M911 1176q-279 0 -452.5 -156t-173.5 -391t175 -386t451 -151q365 0 549 209l113 -70q-207 -264 -662 -264q-324 0 -534 172q-233 191 -233 495t235 492q217 174 532 174q441 1 670 -290l-121 -47q-190 213 -549 213z" />
    <glyph glyph-name="d" unicode="d" horiz-adv-x="1820" 
d="M1040 129q121 0 227.5 57.5t168.5 153.5q80 127 80 283q0 229 -139.5 368t-368.5 139h-646v-1001h678zM989 1260q313 0 495.5 -173t182.5 -455t-181 -457t-454 -175h-803v1260h760z" />
    <glyph glyph-name="e" unicode="e" horiz-adv-x="1556" 
d="M1475 0h-1246v1260h1196v-130h-1063v-399h740v-129h-740v-473h1113v-129z" />
    <glyph glyph-name="f" unicode="f" horiz-adv-x="1456" 
d="M1425 1130h-1063v-399h740v-129h-740v-602h-133v1260h1196v-130z" />
    <glyph glyph-name="g" unicode="g" horiz-adv-x="1822" 
d="M922 -37q-328 0 -543 174q-236 189 -236 493t238 496q217 176 532 177q399 0 650 -275l-123 -76q-213 223 -527 224q-276 0 -451 -158t-175 -392t174 -384t432 -150t413.5 108.5t211.5 309.5h-666v129h827q-10 -309 -219.5 -492.5t-537.5 -183.5z" />
    <glyph glyph-name="h" unicode="h" horiz-adv-x="1810" 
d="M1581 0h-133v602h-1086v-602h-133v1260h133v-529h1086v529h133v-1260z" />
    <glyph glyph-name="i" unicode="i" horiz-adv-x="593" 
d="M362 0h-133v1260h133v-1260z" />
    <glyph glyph-name="j" unicode="j" horiz-adv-x="1280" 
d="M1079 408q0 -432 -536 -433q-502 0 -502 424h127q2 -160 89 -230.5t291 -70.5t301 71t97 237v854h133v-852z" />
    <glyph glyph-name="k" unicode="k" horiz-adv-x="1583" 
d="M362 0h-133v1260h133v-719l932 719h199l-608 -467l680 -793h-164l-619 715l-420 -326v-389z" />
    <glyph glyph-name="l" unicode="l" horiz-adv-x="1347" 
d="M1337 0h-1108v1260h133v-1131h975v-129z" />
    <glyph glyph-name="m" unicode="m" horiz-adv-x="2115" 
d="M1886 0h-133v1122h-4l-690 -880l-692 891h-5v-1133h-133v1260h187l643 -820l639 820h188v-1260z" />
    <glyph glyph-name="n" unicode="n" horiz-adv-x="1816" 
d="M1587 0h-168l-1057 1133v-1133h-133v1260h168l1057 -1133v1133h133v-1260z" />
    <glyph glyph-name="o" unicode="o" horiz-adv-x="1828" 
d="M1542 626q0 236 -175 393t-453.5 157t-452.5 -158t-174 -394t173 -384t453.5 -148t454.5 149t174 385zM1686 629q0 -303 -236 -494q-212 -172 -534 -172t-537 174q-236 189 -236 493t238 496q217 176 532.5 176.5t532.5 -176.5q240 -194 240 -497z" />
    <glyph glyph-name="p" unicode="p" horiz-adv-x="1619" 
d="M1182 637q121 0 186.5 64.5t65.5 183.5q0 246 -293 245h-779v-493h820zM1190 1260q180 0 285.5 -102.5t105.5 -274.5t-112.5 -273.5t-307.5 -101.5h-799v-508h-133v1260h961z" />
    <glyph glyph-name="q" unicode="q" horiz-adv-x="1849" 
d="M1552 606q0 148 -43 243t-151 187q-168 142 -440 142t-446.5 -158t-174.5 -394t173 -385t454 -149q94 0 161 17l-163 182l122 35l164 -185q166 66 255 191.5t89 273.5zM924 -35q-324 0 -535 172q-235 193 -235 495t237 496q215 176 532.5 176.5t534.5 -176.5
q238 -193 238 -495q0 -403 -398 -592l160 -176l-125 -39l-157 172q-119 -33 -252 -33z" />
    <glyph glyph-name="r" unicode="r" horiz-adv-x="1740" 
d="M1182 637q121 0 186.5 64.5t65.5 183.5q0 246 -293 245h-779v-493h820zM362 508v-508h-133v1260h961q180 0 285.5 -102.5t105.5 -268.5t-96 -263.5t-273 -115.5l381 -510h-161l-398 508h-672z" />
    <glyph glyph-name="s" unicode="s" horiz-adv-x="1642" 
d="M786 1169q-463 0 -462 -219q0 -119 125 -164q106 -41 428 -53t462 -80q166 -77 166 -273t-170 -302.5t-489 -106.5q-436 0 -709 193l76 108q279 -176 635 -176q240 0 372 74t132 201t-127 180q-109 45 -431 58t-456 69q-168 66 -168 244t161 275t457 97q375 0 619 -149
l-78 -101q-238 125 -543 125z" />
    <glyph glyph-name="t" unicode="t" horiz-adv-x="1357" 
d="M1348 1130h-603v-1130h-133v1130h-602v130h1338v-130z" />
    <glyph glyph-name="u" unicode="u" horiz-adv-x="1779" 
d="M1565 412q0 -193 -182.5 -312.5t-490.5 -119.5t-492.5 120.5t-184.5 311.5v848h133v-805q0 -349 542 -349t542 349v805h133v-848z" />
    <glyph glyph-name="v" unicode="v" horiz-adv-x="1482" 
d="M1473 1260l-639 -1260h-185l-639 1260h152l579 -1141l580 1141h152z" />
    <glyph glyph-name="w" unicode="w" horiz-adv-x="1937" 
d="M1896 1260l-411 -1260h-187l-337 1139l-320 -1139h-188l-412 1260h152l350 -1141l323 1141h189l342 -1139l350 1139h149z" />
    <glyph glyph-name="x" unicode="x" horiz-adv-x="1413" 
d="M1403 0h-176l-520 549l-519 -549h-178l611 639l-588 621h178l496 -527l497 527h176l-585 -621z" />
    <glyph glyph-name="y" unicode="y" horiz-adv-x="1427" 
d="M782 0h-133v506l-639 754h164l539 -625l538 625h166l-635 -754v-506z" />
    <glyph glyph-name="z" unicode="z" horiz-adv-x="1355" 
d="M1325 0h-1294v129l1040 1001h-1026v130h1233v-130l-1065 -1001h1112v-129z" />
    <glyph glyph-name="braceleft" unicode="{" horiz-adv-x="778" 
d="M625 -289h-9q-186 0 -270 62.5t-84 210.5v413q0 188 -160 271q160 82 160 272v397q0 287 346 287h17v-70q-229 0 -230 -239v-248q0 -158 -14 -223q-27 -133 -117 -172v-6q90 -39 117 -172q14 -66 14 -224v-260q0 -229 223 -229h7v-70z" />
    <glyph glyph-name="bar" unicode="|" horiz-adv-x="1548" 
d="M1247 374q0 122 -111.5 197.5t-278.5 75.5t-300 -71.5t-217 -200.5q84 -145 204 -207t306 -62t291.5 73t105.5 195zM842 762q244 0 398.5 -106.5t154.5 -276.5t-152.5 -284.5t-402.5 -114.5q-311 0 -498.5 177t-187.5 464q0 217 116 376q205 281 584 281q254 0 477 -197
l-102 -84q-163 156 -403 156t-389.5 -143.5t-149.5 -378.5q0 -60 12 -115q205 246 543 246z" />
    <glyph glyph-name="braceright" unicode="}" horiz-adv-x="761" 
d="M504 397v-413q0 -147 -83 -210t-271 -63h-9v70h6q223 0 224 229v260q0 160 12 224q29 131 119 172v6q-90 41 -119 172q-12 63 -12 223v248q0 240 -230 239v70h17q346 0 346 -287v-397q0 -190 160 -272q-160 -82 -160 -271z" />
    <glyph glyph-name="asciitilde" unicode="~" horiz-adv-x="1335" 
d="M57 1130v130h1188v-130l-803 -1130h-163l802 1130h-1024z" />
    <glyph glyph-name="nonbreakingspace" unicode="&#xa0;" horiz-adv-x="552" 
 />
    <glyph glyph-name="exclamdown" unicode="&#xa1;" horiz-adv-x="655" 
d="M236 0v59l30 1129h125l31 -1188h-186zM451 1354h-246v129h246v-129z" />
    <glyph glyph-name="cent" unicode="&#xa2;" horiz-adv-x="1447" 
d="M270 733q0 -170 114 -281.5t321 -136.5v842q-205 -27 -320 -140.5t-115 -283.5zM825 0h-120v213q-258 27 -402.5 168t-144.5 354t145.5 354.5t401.5 170.5v198h120v-198q279 -19 465 -230l-98 -37q-152 152 -367 164v-844q217 8 369 164l88 -57q-182 -201 -457 -207v-213
z" />
    <glyph glyph-name="sterling" unicode="&#xa3;" horiz-adv-x="1437" 
d="M1118 -10q-88 0 -273.5 34.5t-291.5 34.5q-184 0 -354 -88l-86 146q229 217 229 432q0 66 -29 176h-227v98h195q-41 133 -41 230q0 213 152 338t432 125t462 -164l-61 -95q-180 143 -434 144q-418 0 -418 -344q0 -92 41 -234h526v-98h-502q25 -117 25 -186
q0 -254 -168 -394q127 31 239 31t297 -32.5t261 -32.5t170 45l59 -115q-115 -51 -203 -51z" />
    <glyph glyph-name="currency" unicode="&#xa4;" horiz-adv-x="1581" 
d="M1280 631q0 215 -144 367t-344 153q-202 -1 -346 -153t-145 -367q0 -272 211 -432q123 -94 278.5 -94.5t278.5 94.5q211 160 211 432zM1415 631q0 -338 -272 -537q-157 -114 -353 -114t-354 114q-272 199 -272 537q0 267 184 457t444 190t441 -190q182 -190 182 -457z
" />
    <glyph glyph-name="yen" unicode="&#xa5;" horiz-adv-x="1712" 
d="M1280 735v-100h-328l-32 -39v-190h360v-101h-360v-305h-134v305h-362v101h362v190l-30 39h-332v100h248l-623 748h162l639 -754l641 754h162l-617 -748h244z" />
    <glyph glyph-name="brokenbar" unicode="&#xa6;" 
d="M567 408v-758h-108v758h108zM567 1432v-758h-108v758h108z" />
    <glyph glyph-name="section" unicode="&#xa7;" horiz-adv-x="1708" 
d="M1386 735q0 211 -350 246q-28 2 -270 12t-369 43q-88 -63 -88 -151q0 -174 299 -213q16 -2 294 -14t431 -66q53 66 53 143zM1536 295q0 -201 -176 -312.5t-504 -111.5q-442 0 -727 199l78 112q297 -190 653 -190q248 0 387 80t139 220t-155 191q-111 39 -450 55t-468 78
q-152 70 -151 246q0 133 102 236q-102 82 -102 217q0 180 166 281.5t471 101.5q406 0 635 -168l-84 -94q-254 139 -557 139q-483 0 -484 -244q0 -111 113 -162q72 -33 209 -45q145 -6 291 -14q328 -18 462 -90q152 -82 152 -272q0 -130 -82 -232q82 -94 82 -221z" />
    <glyph glyph-name="dieresis" unicode="&#xa8;" 
d="M444 1510q0 -42 -29.5 -71.5t-71.5 -29.5t-71.5 29.5t-29.5 70.5t30.5 72t71.5 31t70.5 -30t29.5 -72zM780 1509q0 -41 -29.5 -70.5t-71.5 -29.5t-71.5 28.5t-29.5 71.5t29.5 73t70.5 30t71.5 -31t30.5 -72z" />
    <glyph glyph-name="copyright" unicode="&#xa9;" horiz-adv-x="1705" 
d="M850 274q-176 0 -280.5 120t-104.5 329t107.5 332t287.5 123q264 0 334 -267h-129q-55 164 -201 164q-256 0 -256 -352q0 -164 68.5 -254t187.5 -90q156 0 211 182h129q-70 -287 -354 -287zM855 80q267 0 457 190t189 456q0 267 -187.5 456.5t-457.5 189.5t-460 -190
t-190 -455q0 -266 191 -456.5t458 -190.5zM1587 727q0 -307 -215 -522t-517 -215t-519 217t-217 519t216 518t521 216t518 -213t213 -520z" />
    <glyph glyph-name="ordfeminine" unicode="&#xaa;" 
d="M739 950l-225 420l-227 -420h452zM1034 633h-125l-114 211h-564l-116 -211h-125l459 852h129z" />
    <glyph glyph-name="guillemotleft" unicode="&#xab;" horiz-adv-x="1064" 
d="M569 991l-282 -334l278 -331h-155l-289 331l297 334h151zM942 991l-283 -334l279 -331h-156l-288 331l297 334h151z" />
    <glyph glyph-name="logicalnot" unicode="&#xac;" horiz-adv-x="1495" 
d="M1210 343q0 114 -121 179.5t-353 65.5t-357 -65t-125 -177t128 -176t356 -64t350 61.5t122 175.5zM1141 932q0 106 -103.5 163.5t-298 57.5t-299 -58.5t-104.5 -162.5t105 -167t297 -63t297.5 62t105.5 168zM1368 338q0 -172 -162 -265t-469 -93t-469 93t-162 265
q0 225 338 315q-250 74 -249 283q0 156 144 249t397 93t397.5 -93t144.5 -249q0 -193 -248 -283q162 -39 250 -121.5t88 -193.5z" />
    <glyph glyph-name="minus" unicode="&#xad;" horiz-adv-x="1705" 
d="M1452 659v-98h-1198v98h1198z" />
    <glyph glyph-name="minus" unicode="&#x2212;" horiz-adv-x="1705" 
d="M1452 659v-98h-1198v98h1198z" />
    <glyph glyph-name="registered" unicode="&#xae;" horiz-adv-x="776" 
d="M385 1186q68 0 68 49t-72 49h-45v-98h49zM336 1139v-142h-72v342h121q145 0 145 -100q0 -63 -73 -90l75 -152h-81l-66 142h-49zM657 1169.5q0 112.5 -76.5 189.5t-191.5 77t-191.5 -77t-76.5 -189.5t77.5 -191.5t190.5 -79t190.5 79t77.5 191.5zM705 1171
q0 -131 -94.5 -224t-226.5 -93t-222 93t-90 223t93 222.5t225 92.5t223.5 -91.5t91.5 -222.5z" />
    <glyph glyph-name="macron" unicode="&#xaf;" 
d="M842 1448h-649v96h649v-96z" />
    <glyph glyph-name="macron" unicode="&#x2c9;" 
d="M842 1448h-649v96h649v-96z" />
    <glyph glyph-name="degree" unicode="&#xb0;" horiz-adv-x="1124" 
d="M811 1144.5q0 104.5 -73.5 180.5t-175.5 76t-175.5 -75t-73.5 -180t74 -179t176.5 -74t175 73.5t72.5 178zM934 1145q0 -141 -109.5 -246.5t-261 -106t-261.5 105.5t-110 248t111 246.5t261 104.5q150 1 260 -105t110 -247z" />
    <glyph glyph-name="plusminus" unicode="&#xb1;" horiz-adv-x="1705" 
d="M1452 150v-99h-1198v99h1198zM903 1169v-348h549v-98h-549v-348h-98v348h-551v98h551v348h98z" />
    <glyph glyph-name="twosuperior" unicode="&#xb2;" horiz-adv-x="1058" 
d="M975 592h-920q8 140 90 242t322 180q8 2 126 36t165 58q92 49 92 131t-84 131t-231 49q-201 0 -371 -123l-53 60q205 137 407 137t316 -70.5t114 -181.5q0 -170 -262 -244q-106 -27 -303 -92q-176 -74 -229 -235h821v-78z" />
    <glyph glyph-name="threesuperior" unicode="&#xb3;" horiz-adv-x="1083" 
d="M977 838q0 -260 -485 -260q-293 0 -451 159l55 62q137 -143 396 -144q385 0 385 193q0 166 -437 166h-49v71q27 -2 80 -2q360 0 360 170q0 78 -78.5 122t-222.5 44q-197 0 -364 -104l-53 59q207 119 407 119t307 -62.5t107 -170.5q0 -150 -199 -205q242 -37 242 -217z
" />
    <glyph glyph-name="acute" unicode="&#xb4;" 
d="M721 1653l-213 -285h-68l117 285h164z" />
    <glyph glyph-name="mu" unicode="&#xb5;" horiz-adv-x="1110" 
d="M203 334q0 -244 225 -244q258 0 348 418l121 557h139l-164 -770q-23 -106 -22 -133q0 -66 68 -66q16 0 36 2l-20 -110q-39 -10 -86 -11q-137 0 -137 146v14q-87 -162 -287 -162t-281 156l-114 -557h-140l316 1491h139l-125 -592q-16 -78 -16 -139z" />
    <glyph glyph-name="mu" unicode="&#x3bc;" horiz-adv-x="1110" 
d="M203 334q0 -244 225 -244q258 0 348 418l121 557h139l-164 -770q-23 -106 -22 -133q0 -66 68 -66q16 0 36 2l-20 -110q-39 -10 -86 -11q-137 0 -137 146v14q-87 -162 -287 -162t-281 156l-114 -557h-140l316 1491h139l-125 -592q-16 -78 -16 -139z" />
    <glyph glyph-name="paragraph" unicode="&#xb6;" horiz-adv-x="1857" 
d="M983 745v609h-289q-369 0 -368 -303q0 -137 97 -221.5t257 -84.5h303zM1432 745v609h-316v-609h316zM1565 -338h-133v954h-316v-954h-133v954h-293q-227 0 -366.5 124t-139.5 312t135.5 309.5t344.5 121.5h901v-1821z" />
    <glyph glyph-name="periodcentered" unicode="&#xb7;" horiz-adv-x="655" 
d="M440 598h-245v129h245v-129z" />
    <glyph glyph-name="periodcentered" unicode="&#x2219;" horiz-adv-x="655" 
d="M440 598h-245v129h245v-129z" />
    <glyph glyph-name="cedilla" unicode="&#xb8;" 
d="M520 -104q162 0 162 -152q0 -78 -53.5 -123t-144.5 -45t-171 33l17 41q49 -16 86 -17q123 0 123 99q0 27 -19.5 46t-48.5 19t-49 -28l-60 10l107 239h90l-51 -122h12z" />
    <glyph glyph-name="onesuperior" unicode="&#xb9;" horiz-adv-x="462" 
d="M299 592h-88v815l-158 -66v62q92 35 158 78h88v-889z" />
    <glyph glyph-name="ordmasculine" unicode="&#xba;" horiz-adv-x="1177" 
d="M979 1044q0 146 -109.5 243t-281.5 97t-280.5 -97t-108.5 -243t107.5 -238.5t282.5 -92.5t282.5 92.5t107.5 238.5zM1094 1048q0 -187 -141.5 -312.5t-362.5 -125.5t-363.5 123t-142.5 311t140.5 315.5t362.5 127.5t364.5 -126t142.5 -313z" />
    <glyph glyph-name="guillemotright" unicode="&#xbb;" horiz-adv-x="1052" 
d="M549 657l-289 -331h-156l279 331l-283 334h152zM922 657l-289 -331h-156l279 331l-283 334h152z" />
    <glyph glyph-name="onequarter" unicode="&#xbc;" horiz-adv-x="1996" 
d="M1659 246v497l-549 -497h549zM1958 174h-215v-174h-84v174h-631v74l631 581h84v-583h215v-72zM1423 1483l-1253 -1503h-164l1256 1503h161zM285 651h-84v760l-150 -59v57q88 33 150 72h84v-830z" />
    <glyph glyph-name="onehalf" unicode="&#xbd;" horiz-adv-x="2000" 
d="M1919 0h-877q8 131 85 224t307 169q102 25 278 88q88 45 88 122t-81 123t-220 46q-188 0 -354 -115l-49 56q195 129 388 129t301.5 -66.5t108.5 -169.5q0 -158 -252 -227q-100 -25 -288 -86q-168 -72 -217 -221h782v-72zM1423 1483l-1253 -1503h-164l1256 1503h161z
M285 651h-84v760l-150 -59v57q88 33 150 72h84v-830z" />
    <glyph glyph-name="threequarters" unicode="&#xbe;" horiz-adv-x="2590" 
d="M2253 246v497l-549 -497h549zM2552 174h-215v-174h-84v174h-631v74l631 581h84v-583h215v-72zM2017 1483l-1253 -1503h-164l1255 1503h162zM469 637q-279 0 -428 149l51 60q129 -135 377 -135q367 0 367 178q0 158 -416 158h-47v65q27 -2 76 -2q344 0 344 160
q0 154 -287 153q-186 0 -348 -98l-49 55q195 113 386 113t293.5 -58.5t102.5 -160.5q-1 -142 -189 -191q229 -37 230 -202q0 -244 -463 -244z" />
    <glyph glyph-name="questiondown" unicode="&#xbf;" horiz-adv-x="1400" 
d="M696 -23q-281 0 -437.5 113t-156.5 307q0 147 95 228q74 61 274 127q94 32 128 44q157 58 157 357v35h137l-2 -82q-4 -197 -80 -303.5t-246 -163.5q-84 -23 -213 -76q-98 -59 -98 -183t119 -199t338 -75q289 0 503 203l107 -78q-219 -254 -625 -254zM934 1354h-246v129
h246v-129z" />
    <glyph glyph-name="Agrave" unicode="&#xc0;" horiz-adv-x="1781" 
d="M1348 514l-445 840h-18l-447 -840h910zM1772 0h-154l-203 385h-1044l-207 -385h-154l785 1483h196zM956 1595h-67l-213 285h162z" />
    <glyph glyph-name="Aacute" unicode="&#xc1;" horiz-adv-x="1781" 
d="M1348 514l-445 840h-18l-447 -840h910zM1772 0h-154l-203 385h-1044l-207 -385h-154l785 1483h196zM1100 1880l-213 -285h-68l117 285h164z" />
    <glyph glyph-name="Acircumflex" unicode="&#xc2;" horiz-adv-x="1781" 
d="M1348 514l-445 840h-18l-447 -840h910zM1772 0h-154l-203 385h-1044l-207 -385h-154l785 1483h196zM1221 1597h-136l-198 215l-201 -215h-135l262 285h156z" />
    <glyph glyph-name="Atilde" unicode="&#xc3;" horiz-adv-x="1781" 
d="M1348 514l-445 840h-18l-447 -840h910zM1772 0h-154l-203 385h-1044l-207 -385h-154l785 1483h196zM1008 1630q-54 0 -142 38t-116 38q-68 0 -119 -82l-68 51q102 131 178 131q47 0 135 -39t130 -38q63 0 114 83l70 -47q-80 -135 -182 -135z" />
    <glyph glyph-name="Adieresis" unicode="&#xc4;" horiz-adv-x="1781" 
d="M1348 514l-445 840h-18l-447 -840h910zM1772 0h-154l-203 385h-1044l-207 -385h-154l785 1483h196zM723 1839q41 1 71 -29t29 -72q1 -42 -29 -72t-72 -30t-72 30t-29 71t31 71t71 31zM1159 1737q0 -41 -30 -71q-29 -30 -71 -30t-72 29t-30 72t30 73t71 29t71 -31t31 -71z
" />
    <glyph glyph-name="Aring" unicode="&#xc5;" horiz-adv-x="1945" 
d="M1430 514l-445 840h-18l-447 -840h910zM1098 1737q0 39 -35 67.5t-90 28.5t-89 -27.5t-34 -68.5t34 -68t90 -27t90 28t34 67zM1853 0h-153l-203 385h-1044l-207 -385h-154l785 1483h196zM1176 1736.5q0 -67.5 -58.5 -114.5t-144.5 -47t-144.5 47t-58.5 114.5t58.5 114.5
t144.5 47t144.5 -47t58.5 -114.5z" />
    <glyph glyph-name="AE" unicode="&#xc6;" horiz-adv-x="2650" 
d="M1124 514v840h-43l-571 -840h614zM2564 0h-1440v385h-702l-264 -385h-148l1012 1483h1485v-129h-1250v-504h869v-129h-869v-592h1307v-129z" />
    <glyph glyph-name="Ccedilla" unicode="&#xc7;" horiz-adv-x="1992" 
d="M1063 1405q-303 0 -510 -164q-240 -191 -240 -491t207 -482t543 -182q426 0 649 246l111 -72q-227 -301 -756 -301l-27 -63h13q162 0 161 -152q0 -78 -53 -123t-144 -45t-171 33l16 41q49 -16 86 -17q123 0 123 99q0 66 -63 65q-33 0 -54 -28l-59 10l82 182
q-381 41 -593 251t-212 533q0 356 274 582q248 203 617 203q504 0 768 -330l-119 -47q-240 252 -649 252z" />
    <glyph glyph-name="Egrave" unicode="&#xc8;" horiz-adv-x="1783" 
d="M1698 0h-1440v1483h1382v-129h-1249v-504h869v-129h-869v-592h1307v-129zM1030 1595h-67l-213 285h161z" />
    <glyph glyph-name="Eacute" unicode="&#xc9;" horiz-adv-x="1783" 
d="M1698 0h-1440v1483h1382v-129h-1249v-504h869v-129h-869v-592h1307v-129zM1174 1880l-213 -285h-68l117 285h164z" />
    <glyph glyph-name="Ecircumflex" unicode="&#xca;" horiz-adv-x="1783" 
d="M1698 0h-1440v1483h1382v-129h-1249v-504h869v-129h-869v-592h1307v-129zM1294 1597h-135l-198 215l-201 -215h-135l262 285h155z" />
    <glyph glyph-name="Edieresis" unicode="&#xcb;" horiz-adv-x="1783" 
d="M1698 0h-1440v1483h1382v-129h-1249v-504h869v-129h-869v-592h1307v-129zM797 1839q41 1 71 -29t29 -72q0 -42 -30 -72q-29 -30 -71 -30t-72 30t-30 71t31 71t72 31zM1233 1737q0 -41 -30 -71t-72 -30q-41 0 -71 29t-30 72t30 73t70 29t72 -31q31 -30 31 -71z" />
    <glyph glyph-name="Igrave" unicode="&#xcc;" horiz-adv-x="649" 
d="M391 0h-133v1483h133v-1483zM391 1595h-67l-213 285h161z" />
    <glyph glyph-name="Iacute" unicode="&#xcd;" horiz-adv-x="649" 
d="M391 0h-133v1483h133v-1483zM535 1880l-213 -285h-68l117 285h164z" />
    <glyph glyph-name="Icircumflex" unicode="&#xce;" horiz-adv-x="649" 
d="M391 0h-133v1483h133v-1483zM655 1597h-135l-198 215l-201 -215h-135l262 285h155z" />
    <glyph glyph-name="Idieresis" unicode="&#xcf;" horiz-adv-x="649" 
d="M391 0h-133v1483h133v-1483zM158 1839q40 1 70 -29t30 -72t-30 -72t-72 -30t-71 30q-30 30 -30 71t31 71t72 31zM594 1737q0 -41 -30 -71t-72 -30t-71 29q-30 29 -30 72t30 73t71 29q42 -1 72 -31t30 -71z" />
    <glyph glyph-name="Eth" unicode="&#xd0;" horiz-adv-x="2097" 
d="M1200 129q252 0 412 176.5t160 440.5t-169 436t-442 172h-770v-545h752v-129h-752v-551h809zM1141 1483q365 0 574.5 -203.5t209.5 -535.5t-210 -538t-525 -206h-932v680h-137v129h137v674h883z" />
    <glyph glyph-name="Ntilde" unicode="&#xd1;" horiz-adv-x="2088" 
d="M1831 0h-189l-1251 1354v-1354h-133v1483h193l1247 -1354v1354h133v-1483zM1161 1630q-55 0 -142 38t-116 38q-68 0 -119 -82l-67 51q102 131 178 131q47 0 135 -39t129 -38q63 0 115 83l69 -47q-80 -135 -182 -135z" />
    <glyph glyph-name="Ograve" unicode="&#xd2;" horiz-adv-x="2131" 
d="M1819 748q0 300 -242 491q-211 166 -511 166t-509 -166q-240 -189 -240 -491t206 -483t544 -181t545 182t207 482zM1960 741q0 -356 -274 -581q-248 -203 -620 -203t-620 203q-274 225 -274 581t277 584q249 205 617 205t617 -205q277 -228 277 -584zM1133 1595h-68
l-213 285h162z" />
    <glyph glyph-name="Oacute" unicode="&#xd3;" horiz-adv-x="2131" 
d="M1819 748q0 300 -242 491q-211 166 -511 166t-509 -166q-240 -189 -240 -491t206 -483t544 -181t545 182t207 482zM1960 741q0 -356 -274 -581q-248 -203 -620 -203t-620 203q-274 225 -274 581t277 584q249 205 617 205t617 -205q277 -228 277 -584zM1276 1880
l-213 -285h-68l117 285h164z" />
    <glyph glyph-name="Ocircumflex" unicode="&#xd4;" horiz-adv-x="2131" 
d="M1819 748q0 300 -242 491q-211 166 -511 166t-509 -166q-240 -189 -240 -491t206 -483t544 -181t545 182t207 482zM1960 741q0 -356 -274 -581q-248 -203 -620 -203t-620 203q-274 225 -274 581t277 584q249 205 617 205t617 -205q277 -228 277 -584zM1397 1597h-135
l-199 215l-201 -215h-135l262 285h156z" />
    <glyph glyph-name="Otilde" unicode="&#xd5;" horiz-adv-x="2131" 
d="M1819 748q0 300 -242 491q-211 166 -511 166t-509 -166q-240 -189 -240 -491t206 -483t544 -181t545 182t207 482zM1960 741q0 -356 -274 -581q-248 -203 -620 -203t-620 203q-274 225 -274 581t277 584q249 205 617 205t617 -205q277 -228 277 -584zM1184 1630
q-54 0 -142 38t-116 38q-68 0 -119 -82l-68 51q102 131 179 131q47 0 135 -39t129 -38q63 0 114 83l70 -47q-80 -135 -182 -135z" />
    <glyph glyph-name="Odieresis" unicode="&#xd6;" horiz-adv-x="2131" 
d="M1819 748q0 300 -242 491q-211 166 -511 166t-509 -166q-240 -189 -240 -491t206 -483t544 -181t545 182t207 482zM1960 741q0 -356 -274 -581q-248 -203 -620 -203t-620 203q-274 225 -274 581t277 584q249 205 617 205t617 -205q277 -228 277 -584zM899 1839
q41 1 71 -29t29 -72q1 -42 -29 -72t-72 -30t-72 30t-29 71t31 71t71 31zM1335 1737q1 -41 -29 -71t-72 -30t-72 29t-29 72q-1 43 29 73t71 29t71 -31t31 -71z" />
    <glyph glyph-name="multiply" unicode="&#xd7;" horiz-adv-x="1705" 
d="M856 680l481 481l70 -69l-481 -482l481 -481l-70 -70l-481 482l-481 -482l-70 70l481 481l-481 482l70 69z" />
    <glyph glyph-name="Oslash" unicode="&#xd8;" horiz-adv-x="2131" 
d="M1067 1405q-301 0 -510 -166q-240 -191 -240 -495t238 -502l887 1079q-193 84 -375 84zM1067 84q338 0 545 182t207 484t-277 514l-889 -1084q195 -96 414 -96zM1960 748q0 -364 -274 -588q-248 -203 -619 -203q-258 0 -498 121l-137 -168h-147l188 229
q-301 248 -301 603t277 583q248 205 618 205q233 0 461 -105l125 154h147l-172 -211q332 -256 332 -620z" />
    <glyph glyph-name="Ugrave" unicode="&#xd9;" horiz-adv-x="2080" 
d="M1823 463q0 -225 -211 -365q-210 -140 -568 -141q-358 0 -572 141t-214 365v1020h133v-969q0 -428 649 -428t650 428v969h133v-1020zM1106 1595h-68l-213 285h162z" />
    <glyph glyph-name="Uacute" unicode="&#xda;" horiz-adv-x="2080" 
d="M1823 463q0 -225 -211 -365q-210 -140 -568 -141q-358 0 -572 141t-214 365v1020h133v-969q0 -428 649 -428t650 428v969h133v-1020zM1249 1880l-213 -285h-67l116 285h164z" />
    <glyph glyph-name="Ucircumflex" unicode="&#xdb;" horiz-adv-x="2080" 
d="M1823 463q0 -225 -211 -365q-210 -140 -568 -141q-358 0 -572 141t-214 365v1020h133v-969q0 -428 649 -428t650 428v969h133v-1020zM1370 1597h-135l-199 215l-200 -215h-136l263 285h155z" />
    <glyph glyph-name="Udieresis" unicode="&#xdc;" horiz-adv-x="2080" 
d="M1823 463q0 -225 -211 -365q-210 -140 -568 -141q-358 0 -572 141t-214 365v1020h133v-969q0 -428 649 -428t650 428v969h133v-1020zM770 1737q0 41 31 71t71 31t71 -29q30 -30 30 -72t-30 -72t-72 -30q-41 0 -71 30t-30 71zM1309 1737q0 -41 -30 -71t-72 -30
q-41 0 -71 29t-30 72t30 73t70 29t72 -31q31 -30 31 -71z" />
    <glyph glyph-name="Yacute" unicode="&#xdd;" horiz-adv-x="1624" 
d="M881 0h-133v596l-738 887h162l639 -754l641 754h162l-733 -887v-596zM1022 1880l-213 -285h-68l117 285h164z" />
    <glyph glyph-name="Thorn" unicode="&#xde;" horiz-adv-x="1869" 
d="M1366 514q147 0 228 81t81 228q0 307 -358 307h-926v-616h975zM1376 1260q205 0 326 -120t121 -321t-129 -317.5t-353 -116.5h-950v-385h-133v1483h133v-223h985z" />
    <glyph glyph-name="germandbls" unicode="&#xdf;" horiz-adv-x="3192" 
d="M786 1169q-463 0 -462 -219q0 -119 125 -164q106 -41 428 -53t462 -80q166 -77 166 -273t-170 -302.5t-489 -106.5q-436 0 -709 193l76 108q279 -176 635 -176q240 0 372 74t132 201t-127 180q-109 45 -431 58t-456 69q-168 66 -168 244t161 275t457 97q375 0 619 -149
l-78 -101q-238 125 -543 125zM2337 1169q-463 0 -463 -219q0 -119 125 -166q107 -39 427 -50t464 -79q166 -79 166 -275t-170 -302.5t-490 -106.5q-438 0 -708 193l75 108q274 -176 635 -176q240 0 372 74t132 201t-127 180q-109 45 -431 58t-456 69q-168 66 -168 244
t161 275t458 97q375 0 618 -149l-78 -101q-238 125 -542 125z" />
    <glyph glyph-name="agrave" unicode="&#xe0;" horiz-adv-x="1552" 
d="M1147 451l-367 682h-4l-368 -682h739zM1542 0h-156l-172 322h-874l-176 -322h-154l678 1260h178zM842 1368h-68l-213 285h162z" />
    <glyph glyph-name="aacute" unicode="&#xe1;" horiz-adv-x="1552" 
d="M1147 451l-367 682h-4l-368 -682h739zM1542 0h-156l-172 322h-874l-176 -322h-154l678 1260h178zM985 1653l-213 -285h-67l116 285h164z" />
    <glyph glyph-name="acircumflex" unicode="&#xe2;" horiz-adv-x="1552" 
d="M1147 451l-367 682h-4l-368 -682h739zM1542 0h-156l-172 322h-874l-176 -322h-154l678 1260h178zM1106 1370h-135l-199 215l-201 -215h-135l262 285h156z" />
    <glyph glyph-name="atilde" unicode="&#xe3;" horiz-adv-x="1552" 
d="M1147 451l-367 682h-4l-368 -682h739zM1542 0h-156l-172 322h-874l-176 -322h-154l678 1260h178zM893 1403q-55 0 -142 38t-116 38q-68 0 -119 -82l-67 51q102 131 178 131q47 0 135 -39t129 -39q63 0 115 84l69 -47q-80 -135 -182 -135z" />
    <glyph glyph-name="adieresis" unicode="&#xe4;" horiz-adv-x="1552" 
d="M1147 451l-367 682h-4l-368 -682h739zM1542 0h-156l-172 322h-874l-176 -322h-154l678 1260h178zM709 1510q0 -42 -30 -72t-72 -29q-41 0 -71 30q-30 31 -30 71t31 71t71 31t71 -30q30 -30 30 -72zM1044 1509q0 -41 -30 -71t-71 -29q-42 0 -72 29q-29 30 -29 72t29 72
q30 30 71 30q42 0 72 -31t30 -72z" />
    <glyph glyph-name="aring" unicode="&#xe5;" horiz-adv-x="1552" 
d="M1147 451l-367 682h-4l-368 -682h739zM905 1525q0 40 -34.5 67.5t-90 27.5t-89.5 -27.5t-34 -68.5t34 -67.5t89.5 -26.5t90 27.5t34.5 67.5zM1542 0h-156l-172 322h-874l-176 -322h-154l678 1260h178zM983 1523.5q0 -67.5 -58.5 -114.5t-144.5 -47t-144 47t-58 114.5
t58 115t144 47.5t144.5 -47.5t58.5 -115z" />
    <glyph glyph-name="ae" unicode="&#xe6;" horiz-adv-x="2291" 
d="M965 451v679h-21l-471 -679h492zM2210 0h-1245v322h-580l-225 -322h-150l873 1260h1278v-130h-1063v-399h739v-129h-739v-473h1112v-129z" />
    <glyph glyph-name="ccedilla" unicode="&#xe7;" horiz-adv-x="1714" 
d="M911 1176q-279 0 -452.5 -156t-173.5 -391t175 -386t451 -151q367 0 549 209l113 -70q-213 -260 -635 -264l-31 -71h13q162 0 161 -152q0 -78 -53 -123t-144 -45t-171 33l16 41q49 -16 86 -17q123 0 123 99q0 27 -19.5 46t-48.5 19t-49 -28l-59 10l84 190
q-332 33 -517.5 210t-185.5 468t236 479q217 174 532 174q432 1 670 -290l-121 -47q-186 213 -549 213z" />
    <glyph glyph-name="egrave" unicode="&#xe8;" horiz-adv-x="1556" 
d="M1475 0h-1246v1260h1196v-130h-1063v-399h740v-129h-740v-473h1113v-129zM885 1368h-68l-213 285h162z" />
    <glyph glyph-name="eacute" unicode="&#xe9;" horiz-adv-x="1556" 
d="M1475 0h-1246v1260h1196v-130h-1063v-399h740v-129h-740v-473h1113v-129zM1028 1653l-213 -285h-67l116 285h164z" />
    <glyph glyph-name="ecircumflex" unicode="&#xea;" horiz-adv-x="1556" 
d="M1475 0h-1246v1260h1196v-130h-1063v-399h740v-129h-740v-473h1113v-129zM1149 1370h-135l-199 215l-201 -215h-135l262 285h156z" />
    <glyph glyph-name="edieresis" unicode="&#xeb;" horiz-adv-x="1556" 
d="M1475 0h-1246v1260h1196v-130h-1063v-399h740v-129h-740v-473h1113v-129zM752 1510q0 -42 -30 -72t-72 -29q-42 0 -72 30q-30 31 -29 71q0 40 31 71q32 31 72 31t70 -30t30 -72zM1087 1509q1 -41 -29 -71t-72 -29q-42 0 -72 29q-30 30 -30 72t30 72t71 30t71 -31t31 -72z
" />
    <glyph glyph-name="igrave" unicode="&#xec;" horiz-adv-x="593" 
d="M362 0h-133v1260h133v-1260zM362 1368h-67l-213 285h162z" />
    <glyph glyph-name="iacute" unicode="&#xed;" horiz-adv-x="593" 
d="M362 0h-133v1260h133v-1260zM506 1653l-213 -285h-68l117 285h164z" />
    <glyph glyph-name="icircumflex" unicode="&#xee;" horiz-adv-x="593" 
d="M362 0h-133v1260h133v-1260zM627 1370h-135l-199 215l-201 -215h-135l262 285h156z" />
    <glyph glyph-name="idieresis" unicode="&#xef;" horiz-adv-x="593" 
d="M362 0h-133v1260h133v-1260zM129 1612q41 0 71 -30t29 -72q1 -42 -29 -72t-72 -29q-42 0 -72 30q-30 31 -30 71t31 71t72 31zM565 1509q1 -41 -29 -71t-72 -29q-42 0 -72 29q-30 30 -30 72t30 72t71 30t71 -31t31 -72z" />
    <glyph glyph-name="eth" unicode="&#xf0;" horiz-adv-x="1820" 
d="M1038 129q123 0 229.5 56.5t166.5 152.5q80 129 79 285q0 227 -139 367t-368 140h-646v-434h639v-129h-639v-438h678zM987 1260q313 0 495.5 -174t182.5 -456t-182.5 -456t-452.5 -174h-803v567h-116v129h116v564h760z" />
    <glyph glyph-name="ntilde" unicode="&#xf1;" horiz-adv-x="1816" 
d="M1587 0h-168l-1057 1133v-1133h-133v1260h168l1057 -1133v1133h133v-1260zM1026 1403q-55 0 -142 38t-116 38q-68 0 -119 -82l-67 51q102 131 178 131q47 0 135 -39t129 -39q63 0 115 84l69 -47q-80 -135 -182 -135z" />
    <glyph glyph-name="ograve" unicode="&#xf2;" horiz-adv-x="1828" 
d="M1542 626q0 236 -175 394q-175 156 -454 156t-453 -158t-173 -394q0 -236 173 -384q174 -148 454 -148t454 149t174 385zM1686 629q0 -303 -236 -494q-212 -172 -534 -172t-537 174q-236 189 -236 493t238 496q217 176 532 176t533 -176q240 -194 240 -497zM981 1368h-68
l-213 285h162z" />
    <glyph glyph-name="oacute" unicode="&#xf3;" horiz-adv-x="1828" 
d="M1542 626q0 236 -175 394q-175 156 -454 156t-453 -158t-173 -394q0 -236 173 -384q174 -148 454 -148t454 149t174 385zM1686 629q0 -303 -236 -494q-212 -172 -534 -172t-537 174q-236 189 -236 493t238 496q217 176 532 176t533 -176q240 -194 240 -497zM1124 1653
l-213 -285h-67l117 285h163z" />
    <glyph glyph-name="ocircumflex" unicode="&#xf4;" horiz-adv-x="1828" 
d="M1542 626q0 236 -175 394q-175 156 -454 156t-453 -158t-173 -394q0 -236 173 -384q174 -148 454 -148t454 149t174 385zM1686 629q0 -303 -236 -494q-212 -172 -534 -172t-537 174q-236 189 -236 493t238 496q217 176 532 176t533 -176q240 -194 240 -497zM1245 1370
h-135l-199 215l-200 -215h-136l263 285h155z" />
    <glyph glyph-name="otilde" unicode="&#xf5;" horiz-adv-x="1828" 
d="M1542 626q0 236 -175 394q-175 156 -454 156t-453 -158t-173 -394q0 -236 173 -384q174 -148 454 -148t454 149t174 385zM1686 629q0 -303 -236 -494q-212 -172 -534 -172t-537 174q-236 189 -236 493t238 496q217 176 532 176t533 -176q240 -194 240 -497zM1032 1403
q-55 0 -142 38t-116 38q-68 0 -119 -82l-67 51q102 131 178 131q47 0 135 -39t129 -39q63 0 115 84l69 -47q-80 -135 -182 -135z" />
    <glyph glyph-name="odieresis" unicode="&#xf6;" horiz-adv-x="1828" 
d="M1542 626q0 236 -175 394q-175 156 -454 156t-453 -158t-173 -394q0 -236 173 -384q174 -148 454 -148t454 149t174 385zM1686 629q0 -303 -236 -494q-212 -172 -534 -172t-537 174q-236 189 -236 493t238 496q217 176 532 176t533 -176q240 -194 240 -497zM748 1612
q40 0 70 -30t30 -72t-30 -72t-72 -29q-42 0 -71 30q-30 31 -30 71t31 71t72 31zM1184 1509q0 -41 -30 -71t-72 -29q-42 0 -72 29q-30 30 -29 72q0 42 30 72q31 30 71 30t71 -31t31 -72z" />
    <glyph glyph-name="divide" unicode="&#xf7;" horiz-adv-x="1705" 
d="M855 365q44 0 75 -31t31 -75t-31 -75.5t-76 -31.5t-75.5 30.5t-30.5 75.5t31.5 76t75.5 31zM1452 659v-98h-1198v98h1198zM855 1071q44 0 75 -31.5t31 -75.5t-31 -76t-76 -32t-75.5 31t-30.5 76t31.5 76.5t75.5 31.5z" />
    <glyph glyph-name="oslash" unicode="&#xf8;" horiz-adv-x="1828" 
d="M913 1176q-279 0 -452.5 -158t-173.5 -392t198 -407l742 889q-156 68 -314 68zM913 92q285 0 457 149.5t172 392.5t-211 415l-739 -891q152 -66 321 -66zM913 -37q-205 0 -405 92l-123 -147h-158l176 211q-260 209 -260 512t238 495q217 176 532 177q195 0 400 -91
l106 134h154l-158 -195q271 -217 271 -521t-236 -495q-213 -172 -537 -172z" />
    <glyph glyph-name="ugrave" unicode="&#xf9;" horiz-adv-x="1779" 
d="M1565 412q-1 -193 -183 -313q-182 -119 -490 -119t-493 120q-184 121 -184 312v848h133v-805q0 -349 542 -349t542 349v805h133v-848zM956 1368h-67l-213 285h162z" />
    <glyph glyph-name="uacute" unicode="&#xfa;" horiz-adv-x="1779" 
d="M1565 412q-1 -193 -183 -313q-182 -119 -490 -119t-493 120q-184 121 -184 312v848h133v-805q0 -349 542 -349t542 349v805h133v-848zM1100 1653l-213 -285h-68l117 285h164z" />
    <glyph glyph-name="ucircumflex" unicode="&#xfb;" horiz-adv-x="1779" 
d="M1565 412q-1 -193 -183 -313q-182 -119 -490 -119t-493 120q-184 121 -184 312v848h133v-805q0 -349 542 -349t542 349v805h133v-848zM1221 1370h-136l-198 215l-201 -215h-135l262 285h156z" />
    <glyph glyph-name="udieresis" unicode="&#xfc;" horiz-adv-x="1779" 
d="M1565 412q-1 -193 -183 -313q-182 -119 -490 -119t-493 120q-184 121 -184 312v848h133v-805q0 -349 542 -349t542 349v805h133v-848zM723 1612q41 0 71 -30t29 -72q1 -42 -29 -72t-72 -29q-42 0 -72 30q-30 31 -30 71t31 71t72 31zM1159 1509q0 -41 -30 -71
q-29 -30 -71 -29q-42 0 -72 29q-30 30 -30 72t30 72t71 30t71 -31t31 -72z" />
    <glyph glyph-name="yacute" unicode="&#xfd;" horiz-adv-x="1427" 
d="M782 0h-133v506l-639 754h164l539 -625l538 625h166l-635 -754v-506zM924 1653l-213 -285h-68l117 285h164z" />
    <glyph glyph-name="thorn" unicode="&#xfe;" horiz-adv-x="1619" 
d="M1182 508q121 0 186.5 64.5t65.5 183.5q0 246 -293 245h-779v-493h820zM1190 1130q180 0 285.5 -102t105.5 -274t-113.5 -273.5t-306.5 -101.5h-799v-379h-133v1260h133v-130h828z" />
    <glyph glyph-name="ydieresis" unicode="&#xff;" horiz-adv-x="1427" 
d="M782 0h-133v506l-639 754h164l539 -625l538 625h166l-635 -754v-506zM547 1612q41 0 71 -30t29 -72q0 -42 -30 -72q-29 -30 -71 -29q-42 0 -72 30q-30 31 -30 71t31 71t72 31zM983 1509q0 -41 -30 -71q-29 -30 -71 -29q-42 0 -72 29q-30 30 -30 72t30 72t71 30t71 -31
t31 -72z" />
    <glyph glyph-name="dotlessi" unicode="&#x131;" horiz-adv-x="593" 
d="M362 0h-133v1260h133v-1260z" />
    <glyph glyph-name="Lslash" unicode="&#x141;" horiz-adv-x="1546" 
d="M1536 0h-1278v506l-100 -68v150l100 67v828h133v-740l498 334v-149l-498 -334v-465h1145v-129z" />
    <glyph glyph-name="lslash" unicode="&#x142;" horiz-adv-x="1347" 
d="M1337 0h-1108v383l-106 -72v150l106 71v728h133v-637l361 243v-149l-361 -244v-344h975v-129z" />
    <glyph glyph-name="OE" unicode="&#x152;" horiz-adv-x="2992" 
d="M1466 250v934q0 170 -284 170h-142q-326 0 -525.5 -171t-199.5 -448t195 -441.5t530 -164.5h166q260 0 260 121zM2906 0h-1859q-371 0 -607 184q-268 209 -268 552t268 556q240 190 600 191h1809v-129h-1250v-504h869v-129h-869v-592h1307v-129z" />
    <glyph glyph-name="oe" unicode="&#x153;" horiz-adv-x="2570" 
d="M1245 219v778q0 133 -233 133h-121q-272 0 -438 -139t-166 -365t161.5 -361.5t442.5 -135.5h156q198 0 198 90zM2488 0h-1591q-338 0 -546 175t-208 460t232 465q205 160 516 160h1548v-130h-1061v-399h738v-129h-738v-473h1110v-129z" />
    <glyph glyph-name="Scaron" unicode="&#x160;" horiz-adv-x="1906" 
d="M1743 448q0 -230 -198 -357q-198 -126 -566 -126q-500 0 -815 219l78 113q324 -207 708 -207q307 0 472 91t165 248t-149 222q-133 59 -411 71t-401 25q-429 42 -429 345q0 200 186 314t530 114q465 0 719 -170l-94 -103q-268 147 -616 148q-276 0 -422 -75t-148 -211
q0 -136 142 -194q124 -51 402 -62t405 -25t225 -56q217 -94 217 -324zM1280 1880l-252 -285h-156l-262 285h135l201 -215l199 215h135z" />
    <glyph glyph-name="scaron" unicode="&#x161;" horiz-adv-x="1642" 
d="M786 1169q-463 0 -462 -219q0 -119 125 -164q106 -41 428 -53t462 -80q166 -77 166 -273t-170 -302t-489 -107q-436 0 -709 193l76 108q279 -176 635 -176q240 0 372 74t132 201t-127 180q-109 45 -431 58t-456 69q-168 66 -168 244t161 275t457 97q375 0 619 -149
l-78 -101q-238 125 -543 125zM1147 1653l-252 -285h-156l-262 285h135l201 -215l199 215h135z" />
    <glyph glyph-name="Ydieresis" unicode="&#x178;" horiz-adv-x="1624" 
d="M881 0h-133v596l-738 887h162l639 -754l641 754h162l-733 -887v-596zM645 1839q41 1 71 -29t29 -72q1 -42 -29 -72t-72 -30t-72 30t-29 71t31 71t71 31zM1081 1737q1 -41 -29 -71t-72 -30t-72 29t-29 72q-1 43 29 73t71 29t71 -31t31 -71z" />
    <glyph glyph-name="Zcaron" unicode="&#x17d;" horiz-adv-x="1624" 
d="M1552 0h-1497v129l1241 1225h-1224v129h1425v-129l-1270 -1225h1325v-129zM1124 1880l-252 -285h-155l-262 285h135l201 -215l198 215h135z" />
    <glyph glyph-name="zcaron" unicode="&#x17e;" horiz-adv-x="1355" 
d="M1325 0h-1294v129l1040 1001h-1026v130h1233v-130l-1065 -1001h1112v-129zM1004 1653l-252 -285h-156l-262 285h135l201 -215l198 215h136z" />
    <glyph glyph-name="florin" unicode="&#x192;" horiz-adv-x="1103" 
d="M850 823v-98h-254l-137 -741q-18 -100 -95 -164t-182 -64q-55 0 -135 25l25 92q37 -18 94 -18q133 0 153 114l142 756h-193v98h209q29 165 56 317t51 203q78 166 264 166q78 1 162 -32l-37 -97q-53 20 -101 21q-160 0 -186 -158l-72 -420h236z" />
    <glyph glyph-name="circumflex" unicode="&#x2c6;" 
d="M842 1370h-135l-199 215l-201 -215h-135l262 285h156z" />
    <glyph glyph-name="caron" unicode="&#x2c7;" 
d="M838 1653l-252 -285h-156l-262 285h135l201 -215l198 215h136z" />
    <glyph glyph-name="breve" unicode="&#x2d8;" 
d="M510 1370q-113 0 -187.5 57.5t-86.5 151.5h112q12 -102 161.5 -102t162.5 102h112q-10 -94 -85.5 -151.5t-188.5 -57.5z" />
    <glyph glyph-name="dotaccent" unicode="&#x2d9;" 
d="M612 1503q0 -41 -29.5 -70.5t-72.5 -29.5t-72.5 29.5t-29.5 71.5t30.5 72t71.5 30t71.5 -31t30.5 -72z" />
    <glyph glyph-name="ring" unicode="&#x2da;" 
d="M635 1533q0 40 -35 67.5t-90 27.5t-89 -27.5t-34 -68.5t34 -67.5t90 -26.5t90 27.5t34 67.5zM713 1531.5q0 -67.5 -58.5 -114.5t-144.5 -47t-144.5 47t-58.5 114.5t58.5 115t144.5 47.5t144.5 -47.5t58.5 -115z" />
    <glyph glyph-name="ogonek" unicode="&#x2db;" 
d="M455 -424q-231 0 -232 186q0 154 246 263h94q-193 -104 -192 -248q0 -68 37.5 -108t87.5 -40t110 21l15 -45q-86 -29 -166 -29z" />
    <glyph glyph-name="tilde" unicode="&#x2dc;" 
d="M629 1403q-55 0 -142.5 38t-115.5 38q-68 0 -119 -82l-68 51q102 131 178 131q47 0 135.5 -39t129.5 -39q63 0 114 84l70 -47q-80 -135 -182 -135z" />
    <glyph glyph-name="hungarumlaut" unicode="&#x2dd;" 
d="M582 1655l-185 -285h-67l90 285h162zM854 1655l-184 -285h-68l90 285h162z" />
    <glyph glyph-name="Delta" unicode="&#x394;" horiz-adv-x="1253" 
d="M147 66h818l-406 1005zM1219 0h-1176l565 1376h45z" />
    <glyph glyph-name="Delta" unicode="&#x2206;" horiz-adv-x="1253" 
d="M147 66h818l-406 1005zM1219 0h-1176l565 1376h45z" />
    <glyph glyph-name="Omega" unicode="&#x3a9;" horiz-adv-x="1572" 
d="M1214 184q98 0 135 34t46 142h47l-21 -360h-516v348q154 31 239 163t85 337t-121 343t-321.5 138t-321.5 -137t-121 -343t84 -338t240 -163v-348h-516l-21 360h47q6 -106 44 -141t136 -35h252v121q-244 45 -376 183.5t-132 347.5q0 246 187.5 396t497 150t496.5 -150.5
t187 -395.5q0 -207 -132 -346.5t-375 -184.5v-121h251z" />
    <glyph glyph-name="Omega" unicode="&#x2126;" horiz-adv-x="1572" 
d="M1214 184q98 0 135 34t46 142h47l-21 -360h-516v348q154 31 239 163t85 337t-121 343t-321.5 138t-321.5 -137t-121 -343t84 -338t240 -163v-348h-516l-21 360h47q6 -106 44 -141t136 -35h252v121q-244 45 -376 183.5t-132 347.5q0 246 187.5 396t497 150t496.5 -150.5
t187 -395.5q0 -207 -132 -346.5t-375 -184.5v-121h251z" />
    <glyph glyph-name="pi" unicode="&#x3c0;" horiz-adv-x="1124" 
d="M819 337q-1 -167 15 -218t74 -51t84 55t26 186h51q0 -330 -217 -329q-133 0 -178 108q-33 84 -33 309l8 377h-280q0 -459 -27 -602q-39 -193 -164 -192q-94 0 -125 98q-18 55 -18 176h49q2 -106 76 -107q92 -1 124 141t35 486h-45q-158 0 -178 -106h-47q8 143 81 197
t245 55h520q135 0 135 45v2h47v-6q0 -102 -46 -144.5t-154 -42.5q-34 -2 -50 0q-8 -270 -8 -437z" />
    <glyph glyph-name="endash" unicode="&#x2013;" horiz-adv-x="1476" 
d="M1354 598h-1231v129h1231v-129z" />
    <glyph glyph-name="emdash" unicode="&#x2014;" horiz-adv-x="1765" 
d="M1642 598h-1519v129h1519v-129z" />
    <glyph glyph-name="quoteleft" unicode="&#x2018;" horiz-adv-x="471" 
d="M358 1124h-245v191q0 168 198 168h33v-62q-127 -10 -127 -104v-64h141v-129z" />
    <glyph glyph-name="quoteright" unicode="&#x2019;" horiz-adv-x="471" 
d="M358 1292q0 -168 -198 -168h-33v62q127 10 127 104v64h-141v129h245v-191z" />
    <glyph glyph-name="quotesinglbase" unicode="&#x201a;" horiz-adv-x="563" 
d="M397 -61q0 -168 -198 -168h-33v61q127 10 127 105v63h-141v129h245v-190z" />
    <glyph glyph-name="quotedblleft" unicode="&#x201c;" horiz-adv-x="833" 
d="M358 1124h-245v191q0 168 198 168h33v-62q-127 -10 -127 -104v-64h141v-129zM721 1124h-246v191q0 168 199 168h33v-62q-127 -10 -127 -104v-64h141v-129z" />
    <glyph glyph-name="quotedblright" unicode="&#x201d;" horiz-adv-x="833" 
d="M348 1292q0 -168 -198 -168h-33v62q127 10 127 104v64h-142v129h246v-191zM711 1292q0 -168 -199 -168h-33v62q127 10 127 104v64h-141v129h246v-191z" />
    <glyph glyph-name="quotedblbase" unicode="&#x201e;" horiz-adv-x="905" 
d="M395 -61q0 -168 -198 -168h-33v61q127 10 127 105v63h-141v129h245v-190zM758 -61q0 -168 -199 -168h-33v61q127 10 127 105v63h-141v129h246v-190z" />
    <glyph glyph-name="dagger" unicode="&#x2020;" horiz-adv-x="1036" 
d="M905 1032h-348l37 -1179h-164l37 1179h-346v129h340l-27 463h154l-25 -463h342v-129z" />
    <glyph glyph-name="daggerdbl" unicode="&#x2021;" horiz-adv-x="1040" 
d="M905 313h-325l14 -460h-164l14 460h-323v129h328l18 590h-346v129h340l-27 463h154l-25 -463h342v-129h-348l18 -590h330v-129z" />
    <glyph glyph-name="bullet" unicode="&#x2022;" horiz-adv-x="1124" 
d="M564 1083q150 1 260 -105t110 -248t-108 -246t-262 -104t-263 104t-108.5 247t111 247.5t260.5 104.5z" />
    <glyph glyph-name="ellipsis" unicode="&#x2026;" horiz-adv-x="1519" 
d="M651 1151q-189 0 -294 -70.5t-105 -194.5t108.5 -199t288.5 -75q344 0 516 279q-88 141 -206.5 200.5t-307.5 59.5zM109 878q0 174 152.5 286t412.5 112q315 0 500.5 -179t185.5 -469t-192.5 -470.5t-471.5 -180.5q-344 0 -518 205l98 82q172 -160 410 -160q115 0 223 46
q145 61 229.5 188t84.5 287q-1 66 -15 123q-223 -262 -571 -263q-231 0 -379.5 109.5t-148.5 283.5z" />
    <glyph glyph-name="perthousand" unicode="&#x2030;" horiz-adv-x="2961" 
d="M768 1111q0 124 -80 212t-188.5 88t-187.5 -88t-79 -213t78 -212t188.5 -87t189.5 88t79 212zM1812 374q0 124 -79.5 212t-188 88t-187.5 -88t-79 -213t78 -212t188.5 -87t189 88t78.5 212zM2685 374q0 124 -80 212t-188.5 88t-187.5 -88t-79 -213t78 -212t188.5 -87
t189.5 88t79 212zM883 1111q0 -167 -113 -283.5t-270.5 -116t-267.5 114.5t-111 283t111 287t267.5 118t269.5 -118t114 -285zM1733 1483l-1256 -1503h-164l1258 1503h162zM1544 776q154 0 268 -118t115 -284q1 -165 -113 -283t-269 -118t-267 116t-112.5 283.5t111.5 285.5
q113 118 267 118zM2038 372.5q0 167.5 112 285.5t268 118q158 0 270 -118t112 -284q0 -165 -114 -283t-269 -118t-267 116t-112 283.5z" />
    <glyph glyph-name="guilsinglleft" unicode="&#x2039;" horiz-adv-x="673" 
d="M549 991l-283 -334l279 -331h-156l-289 331l297 334h152z" />
    <glyph glyph-name="guilsinglright" unicode="&#x203a;" horiz-adv-x="673" 
d="M569 657l-288 -331h-156l278 331l-282 334h151z" />
    <glyph glyph-name="fraction" unicode="&#x2044;" horiz-adv-x="548" 
d="M983 1483l-1253 -1503h-164l1255 1503h162z" />
    <glyph glyph-name="trademark" unicode="&#x2122;" horiz-adv-x="837" 
d="M313 1395h-104v-273h-84v273h-105v67h293v-67zM770 1122h-80v256l-94 -256h-37l-96 256v-256h-82v340h119l80 -205l73 205h117v-340z" />
    <glyph glyph-name="partialdiff" unicode="&#x2202;" horiz-adv-x="1011" 
d="M524 715q-106 0 -176 -122t-69 -331q0 -244 172 -244q106 0 176.5 126t70.5 315q0 256 -174 256zM758 891q0 342 -129 342q-41 0 -103.5 -71.5t-113.5 -71.5q-76 0 -76 65q0 57 59.5 101t149.5 44q158 0 252 -141q96 -150 96 -407q0 -340 -133 -560t-322 -219
q-137 1 -224 103t-87 278t108.5 300t256.5 124q178 0 241 -190q25 92 25 303z" />
    <glyph glyph-name="product" unicode="&#x220f;" horiz-adv-x="1685" 
d="M242 -377v1835h-181v66h1571v-66h-180v-1835h180v-65h-540v65h172v1835h-834v-1835h172v-65h-541v65h181z" />
    <glyph glyph-name="summation" unicode="&#x2211;" horiz-adv-x="1460" 
d="M686 1458h-291l666 -913l-735 -807h434q233 0 342 58t180 245h72q-20 -88 -109 -483h-1171l815 893l-787 1073h1127l67 -471h-69q-68 221 -188.5 313t-352.5 92z" />
    <glyph glyph-name="radical" unicode="&#x221a;" horiz-adv-x="1124" 
d="M1217 1565h-117l-594 -1606h-66l-319 883l-125 -45l-25 80l283 98l256 -709l516 1395h191v-96z" />
    <glyph glyph-name="infinity" unicode="&#x221e;" horiz-adv-x="1460" 
d="M1061 365q104 0 171.5 71.5t67.5 185.5t-61 182t-164 68q-158 1 -305 -331q94 -176 291 -176zM399 860q-104 0 -171.5 -71.5t-67.5 -184t61.5 -182.5t153.5 -70q93 0 163 81t150 251q-96 176 -289 176zM428 233q-131 0 -225 106.5t-94 273.5t82.5 272.5t216.5 105.5
q186 0 303 -254q129 254 321 254q131 0 224.5 -106.5t93.5 -273.5t-82 -272.5t-215 -105.5q-190 0 -303 254q-133 -254 -322 -254z" />
    <glyph glyph-name="integral" unicode="&#x222b;" horiz-adv-x="561" 
d="M580 1550q72 0 118.5 -37.5t46.5 -99.5q0 -98 -100 -98q-59 0 -89 75.5t-60 75.5q-78 0 -99 -223q-6 -66 -24 -628t-97 -746q-102 -240 -294 -240q-72 0 -119 38t-47 100q0 96 100 96q59 0 90 -75t62 -75q74 0 96 224q8 91 24 637t97 737q100 239 295 239z" />
    <glyph glyph-name="approxequal" unicode="&#x2248;" horiz-adv-x="1124" 
d="M788 254q-66 0 -211 48t-249 48t-291 -133v141q182 117 323 117q74 0 164 -28t160 -49t115 -21q109 0 288 131v-143q-162 -111 -299 -111zM788 498q-68 0 -212 48t-228 48q-123 0 -311 -133v141q176 115 321 115q74 0 165 -28t175 -54q57 -14 101 -14q111 0 288 129v-142
q-166 -110 -299 -110z" />
    <glyph glyph-name="approxequal" unicode="&#x22f2;" horiz-adv-x="1124" 
d="M788 254q-66 0 -211 48t-249 48t-291 -133v141q182 117 323 117q74 0 164 -28t160 -49t115 -21q109 0 288 131v-143q-162 -111 -299 -111zM788 498q-68 0 -212 48t-228 48q-123 0 -311 -133v141q176 115 321 115q74 0 165 -28t175 -54q57 -14 101 -14q111 0 288 129v-142
q-166 -110 -299 -110z" />
    <glyph glyph-name="notequal" unicode="&#x2260;" horiz-adv-x="1124" 
d="M98 285v118h303l162 160h-465v119h572l239 240l82 -82l-160 -158h195v-119h-301l-162 -160h463v-118h-571l-240 -240l-80 82l158 158h-195z" />
    <glyph glyph-name="lessequal" unicode="&#x2264;" horiz-adv-x="1124" 
d="M94 0v127h936v-127h-936zM96 553v125l934 293v-131l-719 -226l719 -223v-131z" />
    <glyph glyph-name="greaterequal" unicode="&#x2265;" horiz-adv-x="1124" 
d="M94 0v127h936v-127h-936zM94 260v131l719 223l-719 226v131l936 -293v-125z" />
    <glyph glyph-name="lozenge" unicode="&#x25ca;" horiz-adv-x="1011" 
d="M506 1409l-385 -817l385 -825l385 825zM506 1653l500 -1061l-500 -1069l-500 1069z" />
    <glyph glyph-name="fi" unicode="&#xf001;" horiz-adv-x="2050" 
d="M1425 1130h-1063v-399h740v-129h-740v-602h-133v1260h1196v-130zM1819 0h-133v1260h133v-1260z" />
    <glyph glyph-name="fl" unicode="&#xf002;" horiz-adv-x="2803" 
d="M1425 1130h-1063v-399h740v-129h-740v-602h-133v1260h1196v-130zM2793 0h-1107v1260h133v-1131h974v-129z" />
    <glyph glyph-name="glyph246" horiz-adv-x="552" 
 />
    </font>
</defs>
</svg>
