<?xml version="1.0" standalone="no"?>
<!DOCTYPE svg PUBLIC "-//W3C//DTD SVG 1.1//EN" "http://www.w3.org/Graphics/SVG/1.1/DTD/svg11.dtd" >
<svg xmlns="http://www.w3.org/2000/svg">
<metadata>
Created by FontPrep 20130207 at Thu Mar 20 10:59:09 2014
 By Olivier van Helden
(c) Copyright 1995-1997 International Typeface Corporation  All rights reserved.
</metadata>
<defs>
<font id="5ebba2919efce1ce8c0dde66abe171d7" horiz-adv-x='1024' >
  <font-face 
    font-family="BlairMdITCTTMedium"
    font-weight="500"
    font-stretch="normal"
    units-per-em="2048"
    panose-1="0 0 5 0 0 0 0 0 0 0"
    ascent="1638"
    descent="-410"
    x-height="1260"
    cap-height="1483"
    bbox="-502 -483 3150 1974"
    underline-thickness="223"
    underline-position="-98"
    unicode-range="U+0020-F002"
  />
<missing-glyph 
d="M256 129h512v1323h-512v-1323zM129 0v1579h768v-1579h-768z" />
    <glyph glyph-name=".notdef" 
d="M256 129h512v1323h-512v-1323zM129 0v1579h768v-1579h-768z" />
    <glyph glyph-name=".null" horiz-adv-x="0" 
 />
    <glyph glyph-name="nonmarkingreturn" horiz-adv-x="614" 
 />
    <glyph glyph-name="space" unicode=" " horiz-adv-x="614" 
 />
    <glyph glyph-name="exclam" unicode="!" horiz-adv-x="731" 
d="M514 0h-317v223h317v-223zM510 1483v-113l-57 -979h-197l-57 1092h311z" />
    <glyph glyph-name="quotedbl" unicode="&#x22;" horiz-adv-x="614" 
d="M524 1436v-555h-139v555h139zM229 1436v-555h-139v555h139z" />
    <glyph glyph-name="numbersign" unicode="#" horiz-adv-x="1560" 
d="M946 1028h-305l-39 -235h305zM1397 1028h-248l-37 -235h215v-191h-248l-59 -364h-205l62 364h-306l-61 -364h-205l60 364h-211v191h245l37 235h-215v191h248l43 264h205l-41 -264h303l43 264h205l-43 -264h213v-191z" />
    <glyph glyph-name="dollar" unicode="$" horiz-adv-x="1943" 
d="M1501 444q0 209 -442 222v-473q442 29 442 251zM416 1090q0 -165 397 -183v375q-397 -16 -397 -192zM1059 -135h-246v117q-453 37 -707 241l134 178q260 -166 573 -200v477q-655 18 -655 379q0 193 168 307.5t487 134.5v84h246v-88q412 -57 620 -211l-149 -164
q-217 115 -471 152v-381q709 -37 708 -430q0 -446 -708 -484v-112z" />
    <glyph glyph-name="percent" unicode="%" horiz-adv-x="2342" 
d="M764 1110q0 84 -56.5 141.5t-139.5 57.5t-139 -57.5t-56 -141.5t57 -141.5t139 -57.5t138.5 57.5t56.5 141.5zM1968 375q0 84 -55 141t-138 57t-140.5 -57t-57.5 -140t58.5 -141.5t140.5 -58.5t137 57.5t55 141.5zM983 1110q0 -166 -122 -283.5t-293 -117.5t-291.5 116.5
t-120.5 284.5t121.5 285.5t292.5 117.5t292 -118.5t121 -284.5zM1974 1483l-1325 -1503h-280l1327 1503h278zM2187 375q0 -168 -121.5 -286t-290.5 -118t-292 119t-123 285t123 284.5t292 118.5t290.5 -117.5t121.5 -285.5z" />
    <glyph glyph-name="ampersand" unicode="&#x26;" horiz-adv-x="1929" 
d="M1092 289q-190 172 -353 387q-408 -63 -407 -266q0 -98 100 -161t272 -63t388 103zM951 1300q-79 0 -132 -53t-53 -137t76 -201q285 35 284 234q0 66 -48 111.5t-127 45.5zM682 -27q-266 0 -432 127t-166 318q0 324 516 446q-76 121 -76 246t80 227q133 172 361 172
q178 0 289.5 -103t111.5 -269q0 -293 -385 -406q135 -172 297 -309q125 98 213 352h252q-82 -268 -287 -479q166 -74 348 -74v-227q-287 14 -538 147q-246 -168 -584 -168z" />
    <glyph glyph-name="quotesingle" unicode="'" horiz-adv-x="317" 
d="M229 1436v-555h-139v555h139z" />
    <glyph glyph-name="parenleft" unicode="(" horiz-adv-x="884" 
d="M764 1509h-4q-158 0 -260 -223q-109 -233 -109 -624t102.5 -613.5t268.5 -222.5h2v-115q-291 31 -438 269q-178 285 -178 685t178 687q150 242 438 272v-115z" />
    <glyph glyph-name="parenright" unicode=")" horiz-adv-x="892" 
d="M735 662q0 -397 -178 -685q-145 -233 -438 -266v115h2q164 0 267 223q104 223 104 613t-106 618q-106 229 -263 229h-4v115q289 -31 436 -272q180 -293 180 -690z" />
    <glyph glyph-name="asterisk" unicode="*" horiz-adv-x="1179" 
d="M1053 1063l-348 -68l225 -274l-166 -119l-184 311l-183 -311l-166 119l226 274l-348 68l63 194l326 -124l-39 350h243l-38 -350l325 124z" />
    <glyph glyph-name="plus" unicode="+" horiz-adv-x="800" 
d="M547 0h-246v1012l-201 -84v215q115 41 203 117h244v-1260z" />
    <glyph glyph-name="comma" unicode="," horiz-adv-x="727" 
d="M522 -57q0 -223 -256 -224h-47v121q154 2 154 86v74h-168v223h317v-280z" />
    <glyph glyph-name="hyphen" unicode="-" horiz-adv-x="1087" 
d="M965 543h-842v223h842v-223z" />
    <glyph glyph-name="hyphen" unicode="&#x2010;" horiz-adv-x="1087" 
d="M965 543h-842v223h842v-223z" />
    <glyph glyph-name="period" unicode="." horiz-adv-x="727" 
d="M522 0h-317v223h317v-223z" />
    <glyph glyph-name="slash" unicode="/" horiz-adv-x="1110" 
d="M1169 1483l-948 -1503h-280l950 1503h278z" />
    <glyph glyph-name="zero" unicode="0" horiz-adv-x="1908" 
d="M1485 742q0 237 -148.5 387.5t-382 150.5t-382 -150.5t-148.5 -387.5t149.5 -388t381 -151t381 151t149.5 388zM953 -20q-321 0 -549 224t-228 536t230 536t550 223q322 1 550 -223t227 -537q0 -313 -229.5 -536t-550.5 -223z" />
    <glyph glyph-name="one" unicode="1" horiz-adv-x="784" 
d="M541 0h-246v1237l-238 -102v213q135 43 240 135h244v-1483z" />
    <glyph glyph-name="two" unicode="2" horiz-adv-x="1716" 
d="M1569 0h-1506q25 551 617 735q12 5 210 59t269 93q107 59 107 161t-105.5 167t-294.5 65q-319 0 -579 -207l-156 164q340 264 739 264q293 0 477.5 -133t184.5 -338q0 -293 -391 -403q-145 -33 -428 -113q-266 -92 -359 -291h1215v-223z" />
    <glyph glyph-name="three" unicode="3" horiz-adv-x="1763" 
d="M1579 416q0 -205 -204 -322t-580 -117q-248 0 -430 71t-334 231l164 163q266 -242 626 -241q498 0 498 248q0 221 -590 221q-76 0 -117 -2v200h226q414 0 413 219q0 193 -403 193q-307 0 -567 -166l-142 152q340 236 707 235q311 0 485 -109.5t174 -293.5
q0 -216 -227 -318q301 -100 301 -364z" />
    <glyph glyph-name="four" unicode="4" horiz-adv-x="1660" 
d="M1028 514v709l-715 -709h715zM1614 291h-340v-291h-246v291h-977v223l981 969h242v-969h340v-223z" />
    <glyph glyph-name="five" unicode="5" horiz-adv-x="1810" 
d="M883 956q344 0 544 -133q199 -133 199 -350t-196.5 -356.5t-524.5 -139.5q-528 0 -823 302l192 131q236 -217 627 -217q219 0 346 78.5t127 203.5t-134 200t-396 75t-518 -134l-209 115l231 752h1168v-223h-1002l-141 -408q256 104 510 104z" />
    <glyph glyph-name="six" unicode="6" horiz-adv-x="1871" 
d="M999 203q207 0 329 70.5t122 184.5t-123 190.5t-321 76.5q-340 0 -541 -274q133 -248 534 -248zM1011 932q308 0 499.5 -133t191.5 -347t-183.5 -345.5t-512.5 -131.5q-403 0 -627.5 202t-224.5 556q0 254 141 445q244 328 692 327q410 0 651 -270l-180 -143
q-168 190 -471 190q-184 0 -323 -84q-264 -160 -265 -430q1 -37 11 -92q293 256 601 256z" />
    <glyph glyph-name="seven" unicode="7" horiz-adv-x="1566" 
d="M31 1260v223h1487v-223l-967 -1260h-283l965 1260h-1202z" />
    <glyph glyph-name="eight" unicode="8" horiz-adv-x="1828" 
d="M914 201q536 1 536 235t-536 234t-535 -236q-1 -233 535 -233zM1358 1083q0 197 -444 197t-443 -197q0 -100 114.5 -157.5t329.5 -57.5t329 57.5t114 157.5zM1706 414q0 -205 -205 -322t-585.5 -117t-586.5 117t-206 322q0 123 94 219t270 145q-262 86 -262 307
q0 193 179.5 303.5t507.5 110.5t510 -110.5t182 -303.5q-1 -221 -263 -307q176 -49 270.5 -145t94.5 -219z" />
    <glyph glyph-name="nine" unicode="9" horiz-adv-x="1822" 
d="M768 1284q-205 0 -322.5 -70.5t-117.5 -188.5t114.5 -190.5t317.5 -72.5q360 -1 555 278q-150 244 -547 244zM750 549q-309 0 -490.5 125t-181.5 342t189.5 351t520.5 134q387 0 618.5 -211t231.5 -553t-238 -553t-583 -211q-410 0 -665 252l165 160q158 -186 484 -186
q131 0 265 52t225 184t91 294q0 49 -12 82q-227 -262 -620 -262z" />
    <glyph glyph-name="colon" unicode=":" horiz-adv-x="727" 
d="M522 0h-317v223h317v-223zM522 745h-317v224h317v-224z" />
    <glyph glyph-name="semicolon" unicode=";" horiz-adv-x="737" 
d="M522 -57q0 -223 -256 -224h-47v121q154 2 154 86v74h-168v223h317v-280zM522 745h-317v224h317v-224z" />
    <glyph glyph-name="less" unicode="&#x3c;" horiz-adv-x="1589" 
d="M1434 0h-1317q20 334 248 502q92 68 176 98t269 84t239 78q90 43 90 115q0 176 -322 176q-270 0 -491 -174l-160 163q311 233 655 234q264 0 423 -112t159 -278q-1 -166 -99 -247q-98 -83 -353 -147t-316 -89q-154 -61 -223 -180h1022v-223z" />
    <glyph glyph-name="equal" unicode="=" horiz-adv-x="1597" 
d="M1419 369q0 -184 -174 -285q-180 -102 -514 -102q-414 0 -680 268l156 153q233 -199 528 -198q193 0 307 53t113 135q0 158 -479 158q-78 0 -121 -2v205q43 -2 123 -2q420 0 420 163q0 137 -326 138q-266 0 -481 -144l-150 156q311 211 633 211q274 0 428 -96t154 -252
t-160 -262q223 -113 223 -297z" />
    <glyph glyph-name="greater" unicode="&#x3e;" horiz-adv-x="1531" 
d="M903 461v549l-584 -549h584zM1438 238h-289v-238h-246v238h-848v221l848 801h246v-799h289v-223z" />
    <glyph glyph-name="question" unicode="?" horiz-adv-x="1488" 
d="M739 0h-317v223h317v-223zM725 1493q313 0 491.5 -119t178.5 -319q0 -147 -73 -227t-239 -128q-102 -25 -276 -84q-123 -59 -131 -225h-199q-2 16 -2 49q0 154 78.5 246t270.5 161t216 81q90 49 90 135q0 213 -405 213q-326 0 -510 -201l-170 133q276 285 680 285z" />
    <glyph glyph-name="at" unicode="@" horiz-adv-x="1699" 
d="M963 776q0 140 -93 142q-84 0 -151.5 -109t-67.5 -264q0 -115 92 -115q86 0 153 103t67 243zM825 -39q-307 0 -501.5 192.5t-194.5 489.5q0 162 64 301q88 195 278.5 311.5t408.5 116.5t376 -91t237.5 -229.5t79.5 -299.5q0 -211 -134 -351.5t-335 -140.5
q-158 0 -193 102q-93 -61 -193 -61t-166.5 75t-66.5 197q0 227 166 377q98 88 230 88q70 0 133 -37l16 29h168q-150 -475 -149 -557q0 -92 92 -92q117 0 184.5 97t67.5 267q0 219 -136.5 351.5t-380.5 132.5t-403.5 -158t-159.5 -416q0 -553 578 -553h12v-141h-78z" />
    <glyph glyph-name="A" unicode="A" horiz-adv-x="1939" 
d="M1348 555l-377 717l-379 -717h756zM1909 0h-269l-172 332h-997l-172 -332h-268l784 1483h309z" />
    <glyph glyph-name="B" unicode="B" horiz-adv-x="2164" 
d="M1432 223q307 0 307 201q0 215 -269 215h-976v-416h938zM1450 862q102 0 171 58.5t69 145.5t-61.5 140.5t-168.5 53.5h-966v-398h956zM1991 389q0 -389 -561 -389h-1182v1483h1198q225 0 354.5 -110.5t129.5 -304.5t-193 -304q254 -86 254 -375z" />
    <glyph glyph-name="C" unicode="C" horiz-adv-x="2142" 
d="M1124 1305q-307 0 -500.5 -158t-193.5 -406t191.5 -402.5t517.5 -154.5q393 0 618 244l211 -117q-160 -186 -361.5 -269t-482.5 -83q-393 0 -653 197q-297 225 -297 586t301 589q262 199 649 199q557 0 854 -385l-223 -80q-225 240 -631 240z" />
    <glyph glyph-name="D" unicode="D" horiz-adv-x="2181" 
d="M1253 223q221 0 363.5 142.5t142.5 372.5t-152.5 376t-400.5 146h-712v-1037h759zM1186 1483q387 0 613 -205.5t226 -537.5t-231 -536t-561 -204h-985v1483h938z" />
    <glyph glyph-name="E" unicode="E" horiz-adv-x="1923" 
d="M1800 0h-1552v1483h1495v-223h-1249v-379h868v-224h-868v-434h1306v-223z" />
    <glyph glyph-name="F" unicode="F" horiz-adv-x="1783" 
d="M1743 1260h-1249v-379h868v-224h-868v-657h-246v1483h1495v-223z" />
    <glyph glyph-name="G" unicode="G" horiz-adv-x="2236" 
d="M2066 766q0 -362 -259 -585.5t-669 -223.5t-671 199q-297 225 -297 584t301 589q264 201 670 201q489 0 803 -359l-230 -114q-231 248 -594 248q-283 0 -473 -140q-221 -162 -221 -417t190.5 -410.5t503.5 -155.5q492 0 639 383h-690v223h997v-22z" />
    <glyph glyph-name="H" unicode="H" horiz-adv-x="2174" 
d="M1927 0h-246v657h-1187v-657h-246v1483h246v-602h1187v602h246v-1483z" />
    <glyph glyph-name="I" unicode="I" horiz-adv-x="741" 
d="M494 0h-246v1483h246v-1483z" />
    <glyph glyph-name="J" unicode="J" horiz-adv-x="1613" 
d="M1393 475q0 -252 -171.5 -386t-485.5 -134t-477 131t-175 381h250q16 -156 110 -222.5t302 -66.5t304.5 67.5t96.5 229.5v1008h246v-1008z" />
    <glyph glyph-name="K" unicode="K" horiz-adv-x="1968" 
d="M494 0h-246v1483h246v-768l1038 768h354l-758 -561l840 -922h-315l-713 780l-446 -329v-451z" />
    <glyph glyph-name="L" unicode="L" horiz-adv-x="1679" 
d="M1638 0h-1390v1483h246v-1260h1144v-223z" />
    <glyph glyph-name="M" unicode="M" horiz-adv-x="2533" 
d="M2286 0h-246v1212h-6l-770 -966l-764 966h-6v-1212h-246v1483h305l713 -897l714 897h306v-1483z" />
    <glyph glyph-name="N" unicode="N" horiz-adv-x="2179" 
d="M1931 0h-303l-1134 1217v-1217h-246v1483h305l1133 -1217v1217h245v-1483z" />
    <glyph glyph-name="O" unicode="O" horiz-adv-x="2244" 
d="M1819 748q0 255 -222 417q-190 139 -486 139t-490.5 -158.5t-194.5 -406.5t190.5 -402.5t506.5 -154.5t506 155.5t190 410.5zM2075 738q0 -360 -299 -584q-262 -197 -654 -197t-653 199q-299 225 -299 584t303 589q266 201 652 201t649 -201q301 -231 301 -591z" />
    <glyph glyph-name="P" unicode="P" horiz-adv-x="1951" 
d="M1380 788q285 0 285 228q0 244 -301 244h-870v-472h886zM1423 1483q227 0 360.5 -126t133.5 -342t-138.5 -333t-402.5 -117h-882v-565h-246v1483h1175z" />
    <glyph glyph-name="Q" unicode="Q" horiz-adv-x="2244" 
d="M426 751q0 -256 191.5 -411.5t506.5 -155.5q23 0 88 4l-159 179l233 69l172 -190q360 145 361 499q0 260 -224 424q-190 139 -472 139t-474 -139q-223 -162 -223 -418zM1124 -41q-389 0 -653 199q-301 227 -301 585t303 588q266 201 651 201t650 -201q301 -227 301 -586
q0 -457 -453 -679l184 -203l-229 -74l-182 201q-137 -31 -271 -31z" />
    <glyph glyph-name="R" unicode="R" horiz-adv-x="2064" 
d="M1380 788q285 0 285 228q0 244 -307 244h-864v-472h886zM494 565v-565h-246v1483h1169q233 0 366.5 -125.5t133.5 -327.5q-1 -202 -105 -312t-280 -140l397 -578h-284l-402 565h-749z" />
    <glyph glyph-name="S" unicode="S" horiz-adv-x="1923" 
d="M874 1303q-227 0 -347.5 -53.5t-120.5 -149.5t129 -142q92 -33 350 -49t356 -28q279 -37 412 -137.5t133 -284.5q0 -236 -209 -365t-600 -129q-567 0 -883 250l135 178q348 -213 750 -213q260 0 400 71t141 191q0 141 -181 189q-95 25 -485 51t-537 98q-172 86 -172 292
t196 327t552 121q479 0 803 -220l-150 -165q-330 168 -672 168z" />
    <glyph glyph-name="T" unicode="T" horiz-adv-x="1744" 
d="M1704 1260h-709v-1260h-245v1260h-709v223h1663v-223z" />
    <glyph glyph-name="U" unicode="U" horiz-adv-x="2154" 
d="M1917 479q0 -231 -225 -375q-229 -150 -612.5 -149.5t-612.5 147.5t-229 377v1004h245v-944q0 -174 152.5 -266.5t443.5 -92.5t441.5 92.5t150.5 266.5v944h246v-1004z" />
    <glyph glyph-name="V" unicode="V" horiz-adv-x="1900" 
d="M1890 1483l-798 -1483h-283l-799 1483h275l665 -1237l666 1237h274z" />
    <glyph glyph-name="W" unicode="W" horiz-adv-x="2428" 
d="M2388 1483l-485 -1483h-318l-371 1239l-370 -1239h-314l-489 1483h274l373 -1241l371 1241h311l371 -1241l373 1241h274z" />
    <glyph glyph-name="X" unicode="X" horiz-adv-x="1886" 
d="M1860 0h-320l-598 598l-596 -598h-319l755 752l-729 731h320l571 -578l569 578h320l-729 -731z" />
    <glyph glyph-name="Y" unicode="Y" horiz-adv-x="1888" 
d="M1067 0h-246v586l-811 897h305l631 -692l627 692h305l-811 -897v-586z" />
    <glyph glyph-name="Z" unicode="Z" horiz-adv-x="1816" 
d="M1714 0h-1612v223l1225 1037h-1206v223h1538v-223l-1225 -1037h1280v-223z" />
    <glyph glyph-name="bracketleft" unicode="[" horiz-adv-x="921" 
d="M846 -289h-580v1913h580v-115h-334v-1683h334v-115z" />
    <glyph glyph-name="backslash" unicode="\" horiz-adv-x="1110" 
d="M1169 -20h-280l-948 1503h278z" />
    <glyph glyph-name="bracketright" unicode="]" horiz-adv-x="907" 
d="M657 -289h-579v115h334v1683h-334v115h579v-1913z" />
    <glyph glyph-name="asciicircum" unicode="^" horiz-adv-x="1609" 
d="M1485 409q0 -187 -171 -307t-460 -120q-430 0 -727 268l192 141q225 -184 531 -184q184 0 284.5 55.5t100.5 151.5t-110.5 155.5t-324.5 59.5t-438 -113l-200 107l205 637h1024v-224h-856l-103 -282q209 72 406 71q299 0 473 -114.5t174 -301.5z" />
    <glyph glyph-name="underscore" unicode="_" 
d="M1024 -340v-143h-1024v143h1024z" />
    <glyph glyph-name="grave" unicode="`" 
d="M641 1370h-125l-254 340h238z" />
    <glyph glyph-name="a" unicode="a" horiz-adv-x="1730" 
d="M1165 494l-299 557l-301 -557h600zM1704 0h-270l-146 270h-846l-145 -270h-270l686 1260h305z" />
    <glyph glyph-name="b" unicode="b" horiz-adv-x="1875" 
d="M1239 223q117 0 181.5 39t64.5 105q0 158 -225 157h-799v-301h778zM1255 748q86 0 136.5 39.5t50.5 107.5q0 141 -178 141h-803v-288h794zM1733 340q0 -340 -494 -340h-1024v1260h1036q201 0 316 -96.5t115 -255.5t-150 -257q201 -102 201 -311z" />
    <glyph glyph-name="c" unicode="c" horiz-adv-x="1851" 
d="M395 632q0 -200 160 -323t432 -123q315 0 514 207l211 -112q-279 -313 -731 -314q-377 0 -609.5 187.5t-232.5 486.5t264 492q229 168 564 167q468 0 755 -344l-225 -77q-203 201 -514 200q-268 0 -428 -123.5t-160 -323.5z" />
    <glyph glyph-name="d" unicode="d" horiz-adv-x="1884" 
d="M1087 223q180 0 296 113t116 293t-123 293.5t-327 113.5h-588v-813h626zM1030 1260q332 0 532.5 -174.5t200.5 -434.5t-211 -487q-59 -66 -194 -115t-287 -49h-856v1260h815z" />
    <glyph glyph-name="e" unicode="e" horiz-adv-x="1673" 
d="M1571 0h-1356v1260h1309v-224h-1063v-270h739v-223h-739v-320h1110v-223z" />
    <glyph glyph-name="f" unicode="f" horiz-adv-x="1574" 
d="M1524 1036h-1063v-270h739v-223h-739v-543h-246v1260h1309v-224z" />
    <glyph glyph-name="g" unicode="g" horiz-adv-x="1927" 
d="M1788 690v-39q0 -307 -224.5 -497.5t-578.5 -190.5t-582 166q-264 193 -264 502t264 502q231 170 578 170q418 0 692 -293l-231 -115q-193 184 -459 184t-428 -126.5t-162 -322.5t158 -321t416 -125q387 0 514 283h-568v223h875z" />
    <glyph glyph-name="h" unicode="h" horiz-adv-x="1894" 
d="M1679 0h-245v543h-973v-543h-246v1260h246v-494h973v494h245v-1260z" />
    <glyph glyph-name="i" unicode="i" horiz-adv-x="675" 
d="M461 0h-246v1260h246v-1260z" />
    <glyph glyph-name="j" unicode="j" horiz-adv-x="1433" 
d="M1219 410q0 -217 -149.5 -332t-438.5 -115q-532 0 -561 459h247q14 -131 89 -185.5t243 -54.5t246 51.5t78 176.5v850h246v-850z" />
    <glyph glyph-name="k" unicode="k" horiz-adv-x="1738" 
d="M461 0h-246v1260h246v-617l858 617h362l-671 -484l727 -776h-318l-600 639l-358 -258v-381z" />
    <glyph glyph-name="l" unicode="l" horiz-adv-x="1484" 
d="M1434 0h-1219v1260h246v-1037h973v-223z" />
    <glyph glyph-name="m" unicode="m" horiz-adv-x="2197" 
d="M1982 0h-245l-6 1036l-633 -858l-631 866l-6 -8v-1036h-246v1260h369l514 -713l516 713h368v-1260z" />
    <glyph glyph-name="n" unicode="n" horiz-adv-x="1898" 
d="M1683 0h-366l-856 1051v-1051h-246v1260h367l856 -1051v1051h245v-1260z" />
    <glyph glyph-name="o" unicode="o" horiz-adv-x="1935" 
d="M1540 630q0 198 -159.5 323.5t-412.5 125.5t-414 -127.5t-161 -323.5t158 -320t417 -124t415.5 124t156.5 322zM1796 631q0 -307 -264 -502q-225 -166 -563 -166t-566 166q-264 193 -264 502t267 502q233 170 562 170t562 -170q266 -195 266 -502z" />
    <glyph glyph-name="p" unicode="p" horiz-adv-x="1712" 
d="M1196 686q223 0 223 170q0 180 -237 180h-721v-350h735zM1233 1260q201 0 319.5 -109t118.5 -295t-124 -289.5t-355 -103.5h-731v-463h-246v1260h1018z" />
    <glyph glyph-name="q" unicode="q" horiz-adv-x="1935" 
d="M1540 633q0 195 -159.5 321.5t-412.5 126.5t-414 -126.5t-161 -324.5t157 -322t419 -124h37l-140 148l236 69l155 -163q283 121 283 395zM969 -37q-336 0 -566 168q-264 193 -264 501t264 503q231 170 565 170t564 -170q264 -195 264 -502q0 -379 -373 -570l158 -172
l-233 -71l-156 166q-123 -23 -223 -23z" />
    <glyph glyph-name="r" unicode="r" horiz-adv-x="1830" 
d="M1196 686q223 0 223 170q0 180 -237 180h-721v-350h735zM461 463v-463h-246v1260h1018q201 0 319.5 -109t118.5 -291q0 -313 -313 -383l340 -477h-283l-330 463h-624z" />
    <glyph glyph-name="s" unicode="s" horiz-adv-x="1667" 
d="M821 1077q-420 0 -420 -149q0 -88 158 -115q215 -18 477 -44q262 -25 400 -109t139 -276q0 -192 -181.5 -302.5t-525.5 -110.5q-485 0 -776 222l133 174q260 -182 639 -183q213 0 330 54.5t117 144.5q0 100 -144 141q-81 23 -295 33t-274 16q-233 23 -344 101t-111 227
q0 180 177.5 285.5t496.5 105.5q426 0 690 -184l-151 -160q-246 129 -535 129z" />
    <glyph glyph-name="t" unicode="t" horiz-adv-x="1552" 
d="M1501 1036h-602v-1036h-246v1036h-602v224h1450v-224z" />
    <glyph glyph-name="u" unicode="u" horiz-adv-x="1865" 
d="M1665 414q0 -199 -198.5 -325t-533.5 -126t-533.5 126t-198.5 325v846h245v-797q0 -279 486 -279t487 279v797h246v-846z" />
    <glyph glyph-name="v" unicode="v" horiz-adv-x="1695" 
d="M1686 1260l-697 -1260h-282l-697 1260h273l565 -1047l565 1047h273z" />
    <glyph glyph-name="w" unicode="w" horiz-adv-x="2129" 
d="M2089 1260l-428 -1260h-295l-301 1053l-301 -1053h-295l-428 1260h272l303 -1047l302 1047h294l301 -1047l304 1047h272z" />
    <glyph glyph-name="x" unicode="x" horiz-adv-x="1675" 
d="M1649 0h-310l-501 494l-502 -494h-309l655 639l-633 621h309l480 -476l479 476h309l-633 -621z" />
    <glyph glyph-name="y" unicode="y" horiz-adv-x="1695" 
d="M969 0h-246v496l-713 764h299l539 -574l538 574h300l-717 -764v-496z" />
    <glyph glyph-name="z" unicode="z" horiz-adv-x="1570" 
d="M1489 0h-1407v223l1008 813h-994v224h1346v-224l-1010 -813h1057v-223z" />
    <glyph glyph-name="braceleft" unicode="{" horiz-adv-x="845" 
d="M514 1272l2 -170q0 -342 -115 -430v-4q117 -88 117 -420l-4 -201q0 -221 223 -221h6v-115q-281 0 -380 77t-99 302l4 238q0 184 -82 256q-35 31 -141 84q223 98 223 258v374q0 178 96 251t314 73h65v-115q-229 0 -229 -237z" />
    <glyph glyph-name="bar" unicode="|" horiz-adv-x="1607" 
d="M1231 395q0 86 -98.5 144.5t-262.5 58.5q-282 0 -434 -197q111 -197 434 -196q168 0 264.5 52t96.5 138zM879 805q262 0 432 -114.5t170 -292.5t-168 -298t-443 -120q-334 0 -537.5 179t-203.5 464q0 219 125 381q213 276 604 276q305 0 578 -246l-183 -135
q-152 154 -399 154q-205 0 -341 -119t-136 -297v-27q199 195 502 195z" />
    <glyph glyph-name="braceright" unicode="}" horiz-adv-x="829" 
d="M307 1100l2 178q0 231 -223 231h-6v115h65q219 0 314.5 -72.5t95.5 -251.5v-374q0 -160 223 -258q-133 -55 -183 -138.5t-50 -240.5l14 -199q0 -221 -98.5 -300t-368.5 -79h-12v115h6q223 0 223 233l-4 185q0 340 117 424v4q-115 84 -115 428z" />
    <glyph glyph-name="asciitilde" unicode="~" horiz-adv-x="1462" 
d="M70 1036v224h1300v-224l-831 -1036h-287l833 1036h-1015z" />
    <glyph glyph-name="nonbreakingspace" unicode="&#xa0;" horiz-adv-x="614" 
 />
    <glyph glyph-name="exclamdown" unicode="&#xa1;" horiz-adv-x="731" 
d="M221 0v113l58 979h196l57 -1092h-311zM535 1260h-318v223h318v-223z" />
    <glyph glyph-name="cent" unicode="&#xa2;" horiz-adv-x="1617" 
d="M424 740q0 -226 276 -298v600q-276 -76 -276 -302zM946 0h-246v227q-547 94 -546 514q0 199 140 332t406 184v226h246v-230q315 -36 518 -282l-217 -74q-125 123 -301 147v-600q180 18 305 146l203 -105q-201 -229 -508 -258v-227z" />
    <glyph glyph-name="sterling" unicode="&#xa3;" horiz-adv-x="1501" 
d="M608 53q-193 0 -385 -102l-139 221q246 195 246 403q0 37 -17 99h-243v196h180q-23 86 -23 150q0 221 169 352t464 131t543 -196l-123 -187q-199 162 -444 162q-362 0 -363 -268q0 -57 29 -144h534v-196h-485q12 -63 12 -121q0 -186 -117 -293q74 6 150 6t253 -29.5
t273 -29.5t207 59l113 -203q-168 -76 -299 -75q-76 0 -254 32.5t-281 32.5z" />
    <glyph glyph-name="currency" unicode="&#xa4;" horiz-adv-x="1640" 
d="M1257 628q0 185 -122.5 305t-315 120t-314.5 -119t-122 -305t124 -304t316.5 -118t313 118t120.5 303zM1505 627q0 -168 -79.5 -311.5t-239.5 -239.5t-367 -96t-383 106q-141 86 -221 229.5t-80 311.5q0 271 200 461q199 190 487 190t486 -190t197 -461z" />
    <glyph glyph-name="yen" unicode="&#xa5;" horiz-adv-x="1933" 
d="M1540 870v-196h-379l-80 -88v-86h459v-197h-459v-303h-245v303h-459v197h459v86l-80 88h-379v196h201l-553 613h305l631 -692l626 692h305l-553 -613h201z" />
    <glyph glyph-name="brokenbar" unicode="&#xa6;" 
d="M588 408v-758h-150v758h150zM588 1432v-758h-150v758h150z" />
    <glyph glyph-name="section" unicode="&#xa7;" horiz-adv-x="1851" 
d="M1405 766q0 129 -213 168q-82 14 -284 21t-322 26q-145 -41 -146 -131q0 -117 277 -145q137 -7 301 -19t315 -47q72 53 72 127zM467 1328q0 -75 111 -111q70 -23 208 -33t277 -21q317 -33 457 -115t140 -254t-124 -257q98 -100 98 -236q0 -207 -183 -319.5t-527 -112.5
q-496 0 -783 223l138 180q315 -197 653 -196q213 0 329.5 57t116.5 160t-143 143q-83 25 -313 37t-267 16q-240 23 -351 102t-111 235t137 245q-111 90 -111 229q0 184 172 291t486 107q453 0 712 -199l-145 -156q-289 145 -584 146q-188 0 -290.5 -43t-102.5 -118z" />
    <glyph glyph-name="dieresis" unicode="&#xa8;" 
d="M438 1529q0 -52 -39 -90t-92 -38t-91 37t-38 90t38 92t91 39t92 -39t39 -91zM850 1529q0 -52 -39 -90t-92 -38t-91 37t-38 90t38 92t91 39t92 -39t39 -91z" />
    <glyph glyph-name="copyright" unicode="&#xa9;" horiz-adv-x="1705" 
d="M850 274q-176 0 -280.5 120t-104.5 329t107.5 332t287.5 123q264 0 334 -267h-129q-55 164 -201 164q-256 0 -256 -352q0 -164 68.5 -254t187.5 -90q156 0 211 182h129q-70 -287 -354 -287zM855 80q267 0 457 190t189 456q0 267 -187.5 456.5t-457.5 189.5t-460 -190
t-190 -455q0 -266 191 -456.5t458 -190.5zM1587 727q0 -307 -215 -522t-517 -215t-519 217t-217 519t216 518t521 216t518 -213t213 -520z" />
    <glyph glyph-name="ordfeminine" unicode="&#xaa;" horiz-adv-x="1142" 
d="M752 983l-181 336l-180 -336h361zM1143 637h-203l-96 178h-545l-96 -178h-203l465 850h213z" />
    <glyph glyph-name="guillemotleft" unicode="&#xab;" horiz-adv-x="1482" 
d="M799 991l-332 -334l326 -331h-301l-338 331l346 334h299zM1329 991l-330 -334l326 -331h-301l-340 331l348 334h297z" />
    <glyph glyph-name="logicalnot" unicode="&#xac;" horiz-adv-x="1628" 
d="M1243 377q0 170 -429 170t-429 -170t429 -170t429 170zM1165 909q0 143 -351 143t-351 -143q0 -158 351 -158t351 158zM1513 370q0 -188 -180 -289t-518 -101t-519 101t-181 289t258 294q-172 98 -172 258t159.5 256t452.5 96t453.5 -96t160.5 -256t-172 -258
q258 -106 258 -294z" />
    <glyph glyph-name="minus" unicode="&#xad;" horiz-adv-x="1705" 
d="M1452 682v-141h-1198v141h1198z" />
    <glyph glyph-name="minus" unicode="&#x2212;" horiz-adv-x="1705" 
d="M1452 682v-141h-1198v141h1198z" />
    <glyph glyph-name="registered" unicode="&#xae;" horiz-adv-x="776" 
d="M385 1186q68 0 68 49t-72 49h-45v-98h49zM336 1139v-142h-72v342h121q145 0 145 -100q0 -63 -73 -90l75 -152h-81l-66 142h-49zM657 1169.5q0 112.5 -76.5 189.5t-191.5 77t-191.5 -77t-76.5 -189.5t77.5 -191.5t190.5 -79t190.5 79t77.5 191.5zM705 1171
q0 -131 -94.5 -224t-226.5 -93t-222 93t-90 223t93 222.5t225 92.5t223.5 -91.5t91.5 -222.5z" />
    <glyph glyph-name="macron" unicode="&#xaf;" 
d="M862 1436h-702v151h702v-151z" />
    <glyph glyph-name="macron" unicode="&#x2c9;" 
d="M862 1436h-702v151h702v-151z" />
    <glyph glyph-name="degree" unicode="&#xb0;" horiz-adv-x="1089" 
d="M770 1146q0 89 -65.5 152.5t-158.5 63.5t-158.5 -63.5t-65.5 -152.5t65.5 -151.5t159.5 -62.5t158.5 62.5t64.5 151.5zM918 1144.5q0 -143.5 -108 -247.5t-262 -104t-264 103q-110 104 -110 248t108 248t264 105q156 -1 264 -105t108 -247.5z" />
    <glyph glyph-name="plusminus" unicode="&#xb1;" horiz-adv-x="1705" 
d="M1452 170v-141h-1198v141h1198zM924 1192v-340h528v-139h-528v-340h-142v340h-528v139h528v340h142z" />
    <glyph glyph-name="twosuperior" unicode="&#xb2;" horiz-adv-x="1132" 
d="M1036 592h-995q18 330 408 440q115 29 227 55q160 51 160 134q0 63 -70 101t-195 38q-211 0 -383 -125l-102 98q223 160 489 160q193 0 315 -80t122 -203q0 -176 -258 -241q-96 -20 -283 -68q-174 -53 -238 -176h803v-133z" />
    <glyph glyph-name="threesuperior" unicode="&#xb3;" horiz-adv-x="1163" 
d="M524 578q-315 0 -504 182l109 98q172 -145 414 -145q328 0 327 147q0 133 -389 133h-78v119h150q272 0 272 133q0 115 -266 115q-201 0 -375 -100l-92 92q224 141 448 141t338.5 -65.5t114.5 -176.5q1 -131 -149 -190q199 -63 198 -219q0 -123 -135 -193.5t-383 -70.5z
" />
    <glyph glyph-name="acute" unicode="&#xb4;" 
d="M766 1710l-254 -340h-125l141 340h238z" />
    <glyph glyph-name="mu" unicode="&#xb5;" horiz-adv-x="1150" 
d="M242 338q0 -207 200 -207q135 0 211 95t121 309l115 536h178l-156 -731q-23 -106 -22 -133q0 -68 72 -68q20 0 32 2l-30 -143q-49 -10 -109 -10q-115 0 -149 129q-89 -131 -259 -131t-268 116l-110 -530h-181l318 1499h180l-129 -600q-14 -68 -14 -133z" />
    <glyph glyph-name="mu" unicode="&#x3bc;" horiz-adv-x="1150" 
d="M242 338q0 -207 200 -207q135 0 211 95t121 309l115 536h178l-156 -731q-23 -106 -22 -133q0 -68 72 -68q20 0 32 2l-30 -143q-49 -10 -109 -10q-115 0 -149 129q-89 -131 -259 -131t-268 116l-110 -530h-181l318 1499h180l-129 -600q-14 -68 -14 -133z" />
    <glyph glyph-name="paragraph" unicode="&#xb6;" horiz-adv-x="1935" 
d="M872 788v472h-217q-301 0 -301 -244q0 -227 285 -228h233zM1384 788v472h-266v-472h266zM1630 -338h-246v903h-266v-903h-246v903h-229q-264 0 -402.5 117t-138.5 333t133.5 342t360.5 126h1034v-1821z" />
    <glyph glyph-name="periodcentered" unicode="&#xb7;" horiz-adv-x="952" 
d="M635 543h-318v223h318v-223z" />
    <glyph glyph-name="periodcentered" unicode="&#x2219;" horiz-adv-x="952" 
d="M635 543h-318v223h318v-223z" />
    <glyph glyph-name="cedilla" unicode="&#xb8;" 
d="M678 -250q0 -76 -60.5 -124t-160.5 -48t-199 39l39 74q67 -25 109 -25t72 23.5t30 54.5q0 49 -51 49q-31 0 -56 -35l-63 29q53 98 121 227h123l-68 -108q164 -16 164 -156z" />
    <glyph glyph-name="onesuperior" unicode="&#xb9;" horiz-adv-x="518" 
d="M356 592h-161v741l-158 -61v129q88 23 160 80h159v-889z" />
    <glyph glyph-name="ordmasculine" unicode="&#xba;" horiz-adv-x="1245" 
d="M977 1066q0 120 -98.5 196.5t-256 76.5t-256 -76.5t-98.5 -197.5t97.5 -196.5t257 -75.5t257 76.5t97.5 196.5zM1163 1064q0 -190 -150.5 -312.5t-388.5 -122.5t-390 124t-152 312t152.5 314t388 126t388 -125.5t152.5 -315.5z" />
    <glyph glyph-name="guillemotright" unicode="&#xbb;" horiz-adv-x="1482" 
d="M799 657l-340 -331h-301l325 331l-329 334h297zM1329 657l-338 -331h-301l326 331l-332 334h299z" />
    <glyph glyph-name="onequarter" unicode="&#xbc;" horiz-adv-x="2142" 
d="M1743 289v395l-451 -395h451zM2111 164h-213v-164h-155v164h-615v125l619 540h151v-540h213v-125zM1597 1483l-1325 -1503h-280l1327 1503h278zM340 651h-154v692l-149 -57v119q82 25 149 76h154v-830z" />
    <glyph glyph-name="onehalf" unicode="&#xbd;" horiz-adv-x="2177" 
d="M2085 0h-948q14 307 387 412q115 25 303 84q65 33 65 91t-66.5 94t-185.5 36q-201 0 -364 -117l-98 92q213 147 467 148q184 0 299.5 -74t115.5 -188q0 -164 -245 -228q-274 -54 -364 -98q-89 -45 -132 -127h766v-125zM1597 1483l-1325 -1503h-280l1327 1503h278z
M340 651h-154v692l-149 -57v119q82 25 149 76h154v-830z" />
    <glyph glyph-name="threequarters" unicode="&#xbe;" horiz-adv-x="2758" 
d="M2359 289v395l-450 -395h450zM2728 164h-213v-164h-156v164h-614v125l618 540h152v-540h213v-125zM2214 1483l-1325 -1503h-281l1327 1503h279zM995 885q0 -115 -129 -180.5t-366 -65.5q-301 0 -482 168l105 92q168 -135 395 -135q313 0 313 139q0 123 -372 123h-74v111
h143q260 0 260 123q0 109 -253 108q-193 0 -359 -92l-88 84q213 131 427 131t323.5 -60.5t109.5 -172.5t-143 -171q190 -55 190 -202z" />
    <glyph glyph-name="questiondown" unicode="&#xbf;" horiz-adv-x="1488" 
d="M94 428q0 145 72 226t237 128q104 25 279 82q123 59 131 228h199q2 -27 2 -50q0 -154 -78 -245.5t-270 -160.5t-217 -81q-90 -49 -91 -135q0 -213 406 -213q326 0 510 201l170 -134q-272 -285 -680 -284q-313 0 -491.5 118.5t-178.5 319.5zM1067 1260h-317v223h317v-223z
" />
    <glyph glyph-name="Agrave" unicode="&#xc0;" horiz-adv-x="1939" 
d="M1348 555l-377 717l-379 -717h756zM1909 0h-269l-172 332h-997l-172 -332h-268l784 1483h309zM1100 1597h-125l-254 340h237z" />
    <glyph glyph-name="Aacute" unicode="&#xc1;" horiz-adv-x="1939" 
d="M1348 555l-377 717l-379 -717h756zM1909 0h-269l-172 332h-997l-172 -332h-268l784 1483h309zM1225 1937l-254 -340h-125l141 340h238z" />
    <glyph glyph-name="Acircumflex" unicode="&#xc2;" horiz-adv-x="1939" 
d="M1348 555l-377 717l-379 -717h756zM1909 0h-269l-172 332h-997l-172 -332h-268l784 1483h309zM1366 1595h-209l-186 203l-187 -203h-209l314 340h164z" />
    <glyph glyph-name="Atilde" unicode="&#xc3;" horiz-adv-x="1939" 
d="M1348 555l-377 717l-379 -717h756zM1909 0h-269l-172 332h-997l-172 -332h-268l784 1483h309zM1108 1630q-62 0 -152 38t-112 38q-49 0 -109 -98l-121 94q135 160 222 160q51 0 139 -39t123 -39q53 0 110 94l111 -76q-92 -172 -211 -172z" />
    <glyph glyph-name="Adieresis" unicode="&#xc4;" horiz-adv-x="1939" 
d="M1348 555l-377 717l-379 -717h756zM1909 0h-269l-172 332h-997l-172 -332h-268l784 1483h309zM897 1756q0 -52 -39 -90t-92 -38t-91 37t-38 90t38 92t91 39t92 -39t39 -91zM1309 1756q0 -52 -39 -90t-92 -38t-92 37q-38 37 -37 90q0 53 37 92q38 39 92 39t92 -39
q39 -39 39 -91z" />
    <glyph glyph-name="Aring" unicode="&#xc5;" horiz-adv-x="1939" 
d="M1348 555l-377 717l-379 -717h756zM1079 1784q0 35 -31.5 60.5t-77.5 25.5t-76 -25.5t-30 -60.5q0 -84 107 -84q47 0 77.5 24.5t30.5 59.5zM1909 0h-269l-172 332h-997l-172 -332h-268l784 1483h309zM1202 1784q0 -80 -65.5 -134.5t-164.5 -54.5t-165 54.5t-66 134.5
t65.5 135t164 55t165 -55t66.5 -135z" />
    <glyph glyph-name="AE" unicode="&#xc6;" horiz-adv-x="2871" 
d="M1196 555v715l-504 -715h504zM2748 0h-1552v332h-664l-231 -332h-270l1046 1483h1614v-223h-1249v-379h868v-224h-868v-434h1306v-223z" />
    <glyph glyph-name="Ccedilla" unicode="&#xc7;" horiz-adv-x="2142" 
d="M1124 1305q-307 0 -500.5 -158t-193.5 -406t191.5 -402.5t517.5 -154.5q393 0 618 244l211 -117q-299 -352 -817 -352h-10l-33 -53q164 -16 164 -156q0 -76 -60.5 -124t-160.5 -48t-199 39l39 74q67 -25 109 -25t72 23.5t30 54.5q0 49 -51 49q-31 0 -56 -35l-63 29
q27 47 94 176q-406 45 -629 253t-223 529q0 358 301 586q262 199 649 199q559 0 854 -385l-223 -80q-225 240 -631 240z" />
    <glyph glyph-name="Egrave" unicode="&#xc8;" horiz-adv-x="1923" 
d="M1800 0h-1552v1483h1495v-223h-1249v-379h868v-224h-868v-434h1306v-223zM1110 1597h-125l-254 340h238z" />
    <glyph glyph-name="Eacute" unicode="&#xc9;" horiz-adv-x="1923" 
d="M1800 0h-1552v1483h1495v-223h-1249v-379h868v-224h-868v-434h1306v-223zM1235 1937l-254 -340h-125l141 340h238z" />
    <glyph glyph-name="Ecircumflex" unicode="&#xca;" horiz-adv-x="1923" 
d="M1800 0h-1552v1483h1495v-223h-1249v-379h868v-224h-868v-434h1306v-223zM1376 1595h-209l-186 203l-186 -203h-209l313 340h164z" />
    <glyph glyph-name="Edieresis" unicode="&#xcb;" horiz-adv-x="1923" 
d="M1800 0h-1552v1483h1495v-223h-1249v-379h868v-224h-868v-434h1306v-223zM907 1756q0 -52 -39 -90t-92 -38t-91 37t-38 90t38 92t91 39t92 -39t39 -91zM1319 1756q0 -52 -39 -90t-92 -38t-91 37t-38 90t38 92t91 39t92 -39t39 -91z" />
    <glyph glyph-name="Igrave" unicode="&#xcc;" horiz-adv-x="741" 
d="M494 0h-246v1483h246v-1483zM500 1597h-125l-254 340h237z" />
    <glyph glyph-name="Iacute" unicode="&#xcd;" horiz-adv-x="741" 
d="M494 0h-246v1483h246v-1483zM625 1937l-254 -340h-125l141 340h238z" />
    <glyph glyph-name="Icircumflex" unicode="&#xce;" horiz-adv-x="741" 
d="M494 0h-246v1483h246v-1483zM766 1595h-209l-186 203l-187 -203h-209l314 340h164z" />
    <glyph glyph-name="Idieresis" unicode="&#xcf;" horiz-adv-x="741" 
d="M494 0h-246v1483h246v-1483zM297 1756q0 -52 -39 -90t-92 -38t-91 37t-38 90t38 92t91 39t92 -39t39 -91zM709 1756q0 -52 -39 -90t-92 -38t-92 37q-38 37 -37 90q0 53 37 92q38 39 92 39t92 -39q39 -39 39 -91z" />
    <glyph glyph-name="Eth" unicode="&#xd0;" horiz-adv-x="2181" 
d="M1253 223q221 0 363.5 142.5t142.5 372.5t-152.5 376t-400.5 146h-712v-373h686v-223h-686v-441h759zM1186 1483q387 0 613 -205.5t226 -537.5t-231 -536t-561 -204h-985v664h-148v223h148v596h938z" />
    <glyph glyph-name="Ntilde" unicode="&#xd1;" horiz-adv-x="2179" 
d="M1931 0h-303l-1134 1217v-1217h-246v1483h305l1133 -1217v1217h245v-1483zM1227 1630q-61 0 -151 38t-113 38q-49 0 -109 -98l-121 94q135 160 221 160q52 0 140 -39t123 -39q53 0 110 94l111 -76q-92 -172 -211 -172z" />
    <glyph glyph-name="Ograve" unicode="&#xd2;" horiz-adv-x="2244" 
d="M426 739q0 -249 190 -403t506 -154t507 156q190 156 190 410q0 255 -222 417q-190 139 -486 139q-297 0 -491 -158q-194 -159 -194 -407zM2075 738q0 -360 -299 -584q-262 -197 -654 -197t-653 199q-299 225 -299 584t303 589q266 201 652 201t649 -201
q301 -231 301 -591zM1251 1597h-125l-254 340h238z" />
    <glyph glyph-name="Oacute" unicode="&#xd3;" horiz-adv-x="2244" 
d="M426 739q0 -249 190 -403t506 -154t507 156q190 156 190 410q0 255 -222 417q-190 139 -486 139q-297 0 -491 -158q-194 -159 -194 -407zM2075 738q0 -360 -299 -584q-262 -197 -654 -197t-653 199q-299 225 -299 584t303 589q266 201 652 201t649 -201
q301 -231 301 -591zM1376 1937l-254 -340h-125l142 340h237z" />
    <glyph glyph-name="Ocircumflex" unicode="&#xd4;" horiz-adv-x="2244" 
d="M426 739q0 -249 190 -403t506 -154t507 156q190 156 190 410q0 255 -222 417q-190 139 -486 139q-297 0 -491 -158q-194 -159 -194 -407zM2075 738q0 -360 -299 -584q-262 -197 -654 -197t-653 199q-299 225 -299 584t303 589q266 201 652 201t649 -201
q301 -231 301 -591zM1518 1595h-209l-187 203l-186 -203h-209l313 340h164z" />
    <glyph glyph-name="Otilde" unicode="&#xd5;" horiz-adv-x="2244" 
d="M426 739q0 -249 190 -403t506 -154t507 156q190 156 190 410q0 255 -222 417q-190 139 -486 139q-297 0 -491 -158q-194 -159 -194 -407zM2075 738q0 -360 -299 -584q-262 -197 -654 -197t-653 199q-299 225 -299 584t303 589q266 201 652 201t649 -201
q301 -231 301 -591zM1260 1630q-62 0 -152 38t-113 38q-49 0 -108 -98l-121 94q135 160 221 160q51 0 139 -39t123 -39q53 0 111 94l110 -76q-92 -172 -210 -172z" />
    <glyph glyph-name="Odieresis" unicode="&#xd6;" horiz-adv-x="2244" 
d="M426 739q0 -249 190 -403t506 -154t507 156q190 156 190 410q0 255 -222 417q-190 139 -486 139q-297 0 -491 -158q-194 -159 -194 -407zM2075 738q0 -360 -299 -584q-262 -197 -654 -197t-653 199q-299 225 -299 584t303 589q266 201 652 201t649 -201
q301 -231 301 -591zM1049 1756q0 -52 -39 -90t-92 -38t-92 37q-38 37 -38 90t38 92t92 39t92 -39q39 -39 39 -91zM1460 1756q0 -52 -39 -90t-92 -38t-91 37t-38 90t38 92t91 39t92 -39t39 -91z" />
    <glyph glyph-name="multiply" unicode="&#xd7;" horiz-adv-x="1705" 
d="M860 709l469 469l98 -99l-469 -469l469 -469l-98 -96l-469 467l-469 -467l-98 96l469 469l-469 469l98 99z" />
    <glyph glyph-name="Oslash" unicode="&#xd8;" horiz-adv-x="2244" 
d="M426 747q0 -258 221 -432l776 940q-150 49 -299 50q-281 0 -475 -140q-223 -160 -223 -418zM1819 754q0 260 -256 434l-781 -944q166 -61 342 -62q315 0 505 156t190 416zM1124 -43q-246 0 -491 102l-125 -149h-195l187 225q-330 225 -330 595t303 599q266 201 651 201
q223 0 453 -90l125 151h192l-182 -221q362 -229 363 -627q0 -362 -299 -589q-258 -197 -652 -197z" />
    <glyph glyph-name="Ugrave" unicode="&#xd9;" horiz-adv-x="2154" 
d="M1917 479q0 -231 -225 -375q-228 -150 -612 -150t-613 148q-229 147 -229 377v1004h245v-944q0 -175 153 -267q154 -92 444 -92t441 92t150 267v944h246v-1004zM1206 1597h-125l-254 340h238z" />
    <glyph glyph-name="Uacute" unicode="&#xda;" horiz-adv-x="2154" 
d="M1917 479q0 -231 -225 -375q-228 -150 -612 -150t-613 148q-229 147 -229 377v1004h245v-944q0 -175 153 -267q154 -92 444 -92t441 92t150 267v944h246v-1004zM1331 1937l-254 -340h-125l142 340h237z" />
    <glyph glyph-name="Ucircumflex" unicode="&#xdb;" horiz-adv-x="2154" 
d="M1917 479q0 -231 -225 -375q-228 -150 -612 -150t-613 148q-229 147 -229 377v1004h245v-944q0 -175 153 -267q154 -92 444 -92t441 92t150 267v944h246v-1004zM1473 1595h-209l-187 203l-186 -203h-209l313 340h164z" />
    <glyph glyph-name="Udieresis" unicode="&#xdc;" horiz-adv-x="2154" 
d="M1917 479q0 -231 -225 -375q-228 -150 -612 -150t-613 148q-229 147 -229 377v1004h245v-944q0 -175 153 -267q154 -92 444 -92t441 92t150 267v944h246v-1004zM872 1886q52 0 92 -39t40 -91t-39 -90t-93 -38t-91 37q-38 37 -38 90t38 92t91 39zM1415 1756q0 -52 -39 -90
t-92 -38t-91 37t-38 90t38 92t91 39t92 -39t39 -91z" />
    <glyph glyph-name="Yacute" unicode="&#xdd;" horiz-adv-x="1888" 
d="M1067 0h-246v586l-811 897h305l631 -692l627 692h305l-811 -897v-586zM1198 1937l-254 -340h-125l142 340h237z" />
    <glyph glyph-name="Thorn" unicode="&#xde;" horiz-adv-x="1951" 
d="M1380 565q285 0 285 228q0 244 -301 243h-870v-471h886zM1423 1260q227 0 360.5 -126t133.5 -342t-138.5 -333t-402.5 -117h-882v-342h-246v1483h246v-223h929z" />
    <glyph glyph-name="germandbls" unicode="&#xdf;" horiz-adv-x="3241" 
d="M821 1077q-420 0 -420 -149q0 -88 158 -115q215 -18 477 -44q262 -25 400 -109t139 -276q0 -192 -181.5 -302.5t-525.5 -110.5q-485 0 -776 222l133 174q260 -182 639 -183q213 0 330 54.5t117 144.5q0 100 -144 141q-81 23 -295 33t-274 16q-233 23 -344 101t-111 227
q0 180 177.5 285.5t496.5 105.5q426 0 690 -184l-151 -160q-246 129 -535 129zM2394 1077q-418 0 -418 -149q0 -88 156 -115q217 -18 478 -44q261 -25 400 -109q140 -84 140 -275t-182.5 -302.5t-524.5 -111.5q-485 0 -776 222l133 174q260 -182 639 -183q213 0 330 54.5
t117 144.5q0 100 -144 141q-80 23 -295 33t-274 16q-233 23 -344 101t-111 227q0 180 176.5 285.5t495.5 105.5q424 0 690 -184l-149 -160q-246 129 -537 129z" />
    <glyph glyph-name="agrave" unicode="&#xe0;" horiz-adv-x="1730" 
d="M1165 494l-299 557l-301 -557h600zM1704 0h-270l-146 270h-846l-145 -270h-270l686 1260h305zM995 1370h-125l-254 340h238z" />
    <glyph glyph-name="aacute" unicode="&#xe1;" horiz-adv-x="1730" 
d="M1165 494l-299 557l-301 -557h600zM1704 0h-270l-146 270h-846l-145 -270h-270l686 1260h305zM1120 1710l-254 -340h-125l142 340h237z" />
    <glyph glyph-name="acircumflex" unicode="&#xe2;" horiz-adv-x="1730" 
d="M1165 494l-299 557l-301 -557h600zM1704 0h-270l-146 270h-846l-145 -270h-270l686 1260h305zM1262 1368h-209l-187 203l-186 -203h-209l313 340h164z" />
    <glyph glyph-name="atilde" unicode="&#xe3;" horiz-adv-x="1730" 
d="M1165 494l-299 557l-301 -557h600zM1704 0h-270l-146 270h-846l-145 -270h-270l686 1260h305zM1004 1403q-62 0 -152 38t-113 38q-49 0 -108 -99l-121 95q135 160 221 159q51 0 139 -39t123 -39q53 0 111 95l110 -76q-92 -172 -210 -172z" />
    <glyph glyph-name="adieresis" unicode="&#xe4;" horiz-adv-x="1730" 
d="M1165 494l-299 557l-301 -557h600zM1704 0h-270l-146 270h-846l-145 -270h-270l686 1260h305zM793 1529q0 -52 -39 -90t-92 -38t-92 37q-38 37 -38 90t38 92t92 39t92 -39q39 -39 39 -91zM1204 1529q0 -52 -39 -90t-92 -38t-91 37t-38 90t38 92t91 39t92 -39t39 -91z" />
    <glyph glyph-name="aring" unicode="&#xe5;" horiz-adv-x="1730" 
d="M1165 494l-299 557l-301 -557h600zM975 1562.5q0 34.5 -31 60.5t-78 26t-77.5 -26t-30.5 -60.5t30.5 -59t76.5 -24.5t78 24.5t32 59zM1704 0h-270l-146 270h-846l-145 -270h-270l686 1260h305zM1098 1562.5q0 -79.5 -66.5 -134t-165 -54.5t-164 54.5t-65.5 134t65.5 135
t164 55.5t165 -55.5t66.5 -135z" />
    <glyph glyph-name="ae" unicode="&#xe6;" horiz-adv-x="2492" 
d="M1034 494v548l-399 -548h399zM2390 0h-1356v270h-561l-201 -270h-245l915 1260h1401v-224h-1063v-270h739v-223h-739v-320h1110v-223z" />
    <glyph glyph-name="ccedilla" unicode="&#xe7;" horiz-adv-x="1851" 
d="M395 632q0 -196 157 -321t415 -125q334 0 534 207l211 -112q-272 -311 -711 -314l-38 -61q164 -16 163 -156q0 -76 -60 -124t-160 -48t-199 39l38 74q66 -25 109 -25t72.5 23.5t29.5 54.5q0 49 -51 49q-31 0 -55 -35l-64 29q47 82 99 182q-354 37 -550 215t-196 451
q0 305 264 498q229 168 564 167q462 0 755 -344l-225 -77q-201 201 -530 200q-254 0 -413 -125.5t-159 -321.5z" />
    <glyph glyph-name="egrave" unicode="&#xe8;" horiz-adv-x="1673" 
d="M1571 0h-1356v1260h1309v-224h-1063v-270h739v-223h-739v-320h1110v-223zM979 1370h-125l-254 340h238z" />
    <glyph glyph-name="eacute" unicode="&#xe9;" horiz-adv-x="1673" 
d="M1571 0h-1356v1260h1309v-224h-1063v-270h739v-223h-739v-320h1110v-223zM1104 1710l-254 -340h-125l141 340h238z" />
    <glyph glyph-name="ecircumflex" unicode="&#xea;" horiz-adv-x="1673" 
d="M1571 0h-1356v1260h1309v-224h-1063v-270h739v-223h-739v-320h1110v-223zM1245 1368h-209l-186 203l-186 -203h-209l313 340h164z" />
    <glyph glyph-name="edieresis" unicode="&#xeb;" horiz-adv-x="1673" 
d="M1571 0h-1356v1260h1309v-224h-1063v-270h739v-223h-739v-320h1110v-223zM776 1529q0 -52 -39 -90t-92 -38t-91 37t-38 90t38 92t91 39t92 -39t39 -91zM1188 1529q0 -52 -39 -90t-92 -38t-91 37t-38 90t38 92t91 39t92 -39t39 -91z" />
    <glyph glyph-name="igrave" unicode="&#xec;" horiz-adv-x="675" 
d="M461 0h-246v1260h246v-1260zM467 1370h-125l-254 340h238z" />
    <glyph glyph-name="iacute" unicode="&#xed;" horiz-adv-x="675" 
d="M461 0h-246v1260h246v-1260zM592 1710l-254 -340h-125l141 340h238z" />
    <glyph glyph-name="icircumflex" unicode="&#xee;" horiz-adv-x="675" 
d="M461 0h-246v1260h246v-1260zM733 1368h-209l-186 203l-186 -203h-209l313 340h164z" />
    <glyph glyph-name="idieresis" unicode="&#xef;" horiz-adv-x="675" 
d="M461 0h-246v1260h246v-1260zM264 1529q0 -52 -39 -90t-92 -38t-91 37t-38 90t38 92t91 39t92 -39t39 -91zM676 1529q0 -52 -39 -90t-92 -38t-91 37t-38 90t38 92t91 39t92 -39t39 -91z" />
    <glyph glyph-name="eth" unicode="&#xf0;" horiz-adv-x="1884" 
d="M1085 223q180 0 296 113t116 293t-123 293.5t-327 113.5h-588v-284h588v-224h-588v-305h626zM1028 1260q332 0 532.5 -174.5t200.5 -446.5t-213 -475q-66 -64 -204 -114t-275 -50h-856v528h-102v224h102v508h815z" />
    <glyph glyph-name="ntilde" unicode="&#xf1;" horiz-adv-x="1898" 
d="M1683 0h-366l-856 1051v-1051h-246v1260h367l856 -1051v1051h245v-1260zM1087 1403q-61 0 -151 38t-113 38q-49 0 -108 -99l-121 95q135 160 221 159q51 0 139 -39t123 -39q53 0 111 95l110 -76q-92 -172 -211 -172z" />
    <glyph glyph-name="ograve" unicode="&#xf2;" horiz-adv-x="1935" 
d="M968 184q260 0 416 124t156 322t-160 324t-412 125q-252 0 -414 -127q-161 -128 -161 -324t158 -320t417 -124zM1796 631q0 -307 -264 -502q-225 -166 -563 -166t-566 166q-264 193 -264 502t267 502q233 170 562 170t562 -170q266 -195 266 -502zM1098 1370h-125
l-254 340h237z" />
    <glyph glyph-name="oacute" unicode="&#xf3;" horiz-adv-x="1935" 
d="M968 184q260 0 416 124t156 322t-160 324t-412 125q-252 0 -414 -127q-161 -128 -161 -324t158 -320t417 -124zM1796 631q0 -307 -264 -502q-225 -166 -563 -166t-566 166q-264 193 -264 502t267 502q233 170 562 170t562 -170q266 -195 266 -502zM1223 1710l-254 -340
h-125l141 340h238z" />
    <glyph glyph-name="ocircumflex" unicode="&#xf4;" horiz-adv-x="1935" 
d="M968 184q260 0 416 124t156 322t-160 324t-412 125q-252 0 -414 -127q-161 -128 -161 -324t158 -320t417 -124zM1796 631q0 -307 -264 -502q-225 -166 -563 -166t-566 166q-264 193 -264 502t267 502q233 170 562 170t562 -170q266 -195 266 -502zM1364 1368h-209
l-186 203l-187 -203h-209l314 340h164z" />
    <glyph glyph-name="otilde" unicode="&#xf5;" horiz-adv-x="1935" 
d="M968 184q260 0 416 124t156 322t-160 324t-412 125q-252 0 -414 -127q-161 -128 -161 -324t158 -320t417 -124zM1796 631q0 -307 -264 -502q-225 -166 -563 -166t-566 166q-264 193 -264 502t267 502q233 170 562 170t562 -170q266 -195 266 -502zM1106 1403
q-62 0 -152 38t-112 38q-49 0 -109 -99l-121 95q135 160 222 159q51 0 139 -39t123 -39q53 0 110 95l111 -76q-92 -172 -211 -172z" />
    <glyph glyph-name="odieresis" unicode="&#xf6;" horiz-adv-x="1935" 
d="M968 184q260 0 416 124t156 322t-160 324t-412 125q-252 0 -414 -127q-161 -128 -161 -324t158 -320t417 -124zM1796 631q0 -307 -264 -502q-225 -166 -563 -166t-566 166q-264 193 -264 502t267 502q233 170 562 170t562 -170q266 -195 266 -502zM895 1529
q0 -52 -39 -90t-92 -38t-91 37t-38 90t38 92t91 39t92 -39t39 -91zM1307 1529q0 -52 -39 -90t-92 -38t-92 37q-38 37 -37 90q0 53 37 92q38 39 92 39t92 -39q39 -39 39 -91z" />
    <glyph glyph-name="divide" unicode="&#xf7;" horiz-adv-x="1705" 
d="M854 367q51 0 88 -37t37 -88.5t-37 -88t-89 -36.5t-88 35.5t-36 87.5t37 89.5t88 37.5zM1452 680v-139h-1198v139h1198zM854 1106q51 0 88 -38t37 -89t-37 -88t-88 -37t-88 37t-37 88t37 89t88 38z" />
    <glyph glyph-name="oslash" unicode="&#xf8;" horiz-adv-x="1935" 
d="M969 1079q-254 0 -415 -127.5t-161 -327.5t187 -335l626 753q-123 37 -237 37zM969 184q258 0 414.5 124t156.5 330t-201 343l-624 -756q117 -41 254 -41zM1796 644q0 -320 -264 -515q-225 -166 -563 -166q-203 0 -406 80l-112 -135h-189l170 203q-293 195 -293 512
t267 510q233 170 563 170q190 0 391 -76l96 112h186l-153 -180q307 -195 307 -515z" />
    <glyph glyph-name="ugrave" unicode="&#xf9;" horiz-adv-x="1865" 
d="M1665 414q0 -199 -199 -325q-200 -126 -534 -126t-533 126t-198 325v846h245v-797q0 -279 486 -279t487 279v797h246v-846zM1063 1370h-125l-254 340h238z" />
    <glyph glyph-name="uacute" unicode="&#xfa;" horiz-adv-x="1865" 
d="M1665 414q0 -199 -199 -325q-200 -126 -534 -126t-533 126t-198 325v846h245v-797q0 -279 486 -279t487 279v797h246v-846zM1188 1710l-254 -340h-125l141 340h238z" />
    <glyph glyph-name="ucircumflex" unicode="&#xfb;" horiz-adv-x="1865" 
d="M1665 414q0 -199 -199 -325q-200 -126 -534 -126t-533 126t-198 325v846h245v-797q0 -279 486 -279t487 279v797h246v-846zM1329 1368h-209l-186 203l-186 -203h-209l313 340h164z" />
    <glyph glyph-name="udieresis" unicode="&#xfc;" horiz-adv-x="1865" 
d="M1665 414q0 -199 -199 -325q-200 -126 -534 -126t-533 126t-198 325v846h245v-797q0 -279 486 -279t487 279v797h246v-846zM860 1529q0 -52 -39 -90t-92 -38t-91 37t-38 90t38 92t91 39t92 -39t39 -91zM1272 1529q0 -52 -39 -90t-92 -38t-91 37t-38 90t38 92t91 39
t92 -39t39 -91z" />
    <glyph glyph-name="yacute" unicode="&#xfd;" horiz-adv-x="1695" 
d="M969 0h-246v496l-713 764h299l539 -574l538 574h300l-717 -764v-496zM1102 1710l-254 -340h-125l141 340h238z" />
    <glyph glyph-name="thorn" unicode="&#xfe;" horiz-adv-x="1712" 
d="M1196 557q223 0 223 170q0 180 -237 180h-721v-350h735zM1233 1130q201 0 319.5 -108.5t118.5 -294.5t-124 -289.5t-355 -103.5h-731v-334h-246v1260h246v-130h772z" />
    <glyph glyph-name="ydieresis" unicode="&#xff;" horiz-adv-x="1695" 
d="M969 0h-246v496l-713 764h299l539 -574l538 574h300l-717 -764v-496zM774 1529q0 -52 -39 -90t-92 -38t-91 37t-38 90t38 92t91 39t92 -39t39 -91zM1186 1529q0 -52 -39 -90t-92 -38t-91 37t-38 90t38 92t91 39t92 -39t39 -91z" />
    <glyph glyph-name="dotlessi" unicode="&#x131;" horiz-adv-x="675" 
d="M461 0h-246v1260h246v-1260z" />
    <glyph glyph-name="Lslash" unicode="&#x141;" horiz-adv-x="1679" 
d="M1638 0h-1390v424l-101 -64v267l101 63v793h246v-641l497 309v-264l-497 -312v-352h1144v-223z" />
    <glyph glyph-name="lslash" unicode="&#x142;" horiz-adv-x="1484" 
d="M1434 0h-1219v336l-86 -53v262l86 53v662h246v-515l424 256v-262l-424 -256v-260h973v-223z" />
    <glyph glyph-name="OE" unicode="&#x152;" horiz-adv-x="3139" 
d="M1464 348v805q0 104 -196 104h-172q-303 0 -486.5 -144t-183.5 -378t179 -373t493 -139h182q184 0 184 125zM3017 0h-1915q-385 0 -635 178q-297 211 -297 557t297 563q254 184 629 185h1863v-223h-1249v-379h868v-224h-868v-434h1307v-223z" />
    <glyph glyph-name="oe" unicode="&#x153;" horiz-adv-x="2699" 
d="M1241 281v684q0 72 -129 71h-170q-248 0 -397.5 -113.5t-149.5 -297.5t144.5 -293t402.5 -109h156q143 1 143 58zM2597 0h-1649q-328 0 -547 150q-262 180 -262 477t260 479q221 154 543 154h1608v-224h-1063v-270h739v-223h-739v-320h1110v-223z" />
    <glyph glyph-name="Scaron" unicode="&#x160;" horiz-adv-x="1923" 
d="M874 1303q-227 1 -348 -53q-120 -54 -120 -150t129 -142q92 -33 350 -49t356 -28q279 -37 412 -137t133 -285q0 -236 -209 -365t-600 -129q-567 0 -883 250l135 178q348 -213 750 -213q260 0 400 71t141 191q0 141 -181 189q-95 25 -485 51t-537 98q-172 86 -172 292
t196 327t552 121q479 0 803 -220l-150 -165q-330 168 -672 168zM1327 1935l-313 -340h-164l-313 340h208l187 -202l186 202h209z" />
    <glyph glyph-name="scaron" unicode="&#x161;" horiz-adv-x="1667" 
d="M821 1077q-420 0 -420 -149q0 -88 158 -115q215 -18 477 -44q262 -25 400 -109t139 -276q0 -192 -181 -302t-526 -111q-485 0 -776 222l133 174q260 -182 639 -183q213 0 330 54t117 145q0 100 -144 141q-81 23 -295 33t-274 16q-233 23 -344 101t-111 227
q-1 179 177 285t497 106q426 0 690 -184l-151 -160q-246 129 -535 129zM1231 1708l-313 -340h-164l-314 340h209l187 -203l186 203h209z" />
    <glyph glyph-name="Ydieresis" unicode="&#x178;" horiz-adv-x="1888" 
d="M1067 0h-246v586l-811 897h305l631 -692l627 692h305l-811 -897v-586zM870 1756q0 -52 -39 -90t-92 -38t-91 37t-38 90t38 92t91 39t92 -39t39 -91zM1282 1756q0 -52 -39 -90t-92 -38t-91 37t-38 90t38 92t91 39t92 -39t39 -91z" />
    <glyph glyph-name="Zcaron" unicode="&#x17d;" horiz-adv-x="1816" 
d="M1714 0h-1612v223l1225 1037h-1206v223h1538v-223l-1225 -1037h1280v-223zM1307 1935l-314 -340h-164l-313 340h209l186 -202l187 202h209z" />
    <glyph glyph-name="zcaron" unicode="&#x17e;" horiz-adv-x="1570" 
d="M1489 0h-1407v223l1008 813h-994v224h1346v-224l-1010 -813h1057v-223zM1184 1708l-314 -340h-163l-314 340h209l186 -203l187 203h209z" />
    <glyph glyph-name="florin" unicode="&#x192;" horiz-adv-x="1132" 
d="M885 1303q-104 0 -125 -107l-66 -326h215v-196h-254l-123 -660q-20 -111 -110 -184.5t-196 -73.5t-228 43l55 197q78 -41 148 -41t82 63l123 656h-191v196h227q52 340 146 490t278 149q97 0 234 -55l-78 -192q-88 41 -137 41z" />
    <glyph glyph-name="circumflex" unicode="&#x2c6;" 
d="M907 1368h-209l-186 203l-186 -203h-209l313 340h164z" />
    <glyph glyph-name="caron" unicode="&#x2c7;" 
d="M909 1708l-313 -340h-164l-313 340h209l186 -203l186 203h209z" />
    <glyph glyph-name="breve" unicode="&#x2d8;" 
d="M515 1368q-241 0 -304 264h170q25 -117 133.5 -116.5t132.5 116.5h168q-59 -264 -300 -264z" />
    <glyph glyph-name="dotaccent" unicode="&#x2d9;" 
d="M643 1529q0 -52 -39 -90t-92 -38t-91 37t-38 90t38 92t91 39t92 -39t39 -91z" />
    <glyph glyph-name="ring" unicode="&#x2da;" 
d="M621 1556.5q0 34.5 -32 60t-78 25.5t-77 -25.5t-31 -60t31 -59t77 -24.5t78 24.5t32 59zM743 1556.5q0 -79.5 -66.5 -134t-164.5 -54.5t-163.5 54.5t-65.5 134t65.5 135t163.5 55.5t164.5 -55.5t66.5 -135z" />
    <glyph glyph-name="ogonek" unicode="&#x2db;" 
d="M522 -420q-252 0 -252 195q0 158 224 243h196q-227 -111 -227 -239q0 -113 112 -113q37 0 113 25l29 -78q-98 -33 -195 -33z" />
    <glyph glyph-name="tilde" unicode="&#x2dc;" 
d="M649 1403q-61 0 -151 38t-113 38q-49 0 -109 -99l-120 95q135 160 221 159q51 0 139 -39t123 -39q53 0 111 95l110 -76q-92 -172 -211 -172z" />
    <glyph glyph-name="hungarumlaut" unicode="&#x2dd;" 
d="M586 1708l-219 -340h-125l106 340h238zM950 1708l-219 -340h-125l107 340h237z" />
    <glyph glyph-name="Delta" unicode="&#x394;" horiz-adv-x="1253" 
d="M147 66h818l-406 1005zM1219 0h-1176l565 1376h45z" />
    <glyph glyph-name="Delta" unicode="&#x2206;" horiz-adv-x="1253" 
d="M147 66h818l-406 1005zM1219 0h-1176l565 1376h45z" />
    <glyph glyph-name="Omega" unicode="&#x3a9;" horiz-adv-x="1572" 
d="M1214 184q98 0 135 34t46 142h47l-21 -360h-516v348q154 31 239 163t85 337t-121 343t-321.5 138t-321.5 -137t-121 -343t84 -338t240 -163v-348h-516l-21 360h47q6 -106 44 -141t136 -35h252v121q-244 45 -376 183.5t-132 347.5q0 246 187.5 396t497 150t496.5 -150.5
t187 -395.5q0 -207 -132 -346.5t-375 -184.5v-121h251z" />
    <glyph glyph-name="Omega" unicode="&#x2126;" horiz-adv-x="1572" 
d="M1214 184q98 0 135 34t46 142h47l-21 -360h-516v348q154 31 239 163t85 337t-121 343t-321.5 138t-321.5 -137t-121 -343t84 -338t240 -163v-348h-516l-21 360h47q6 -106 44 -141t136 -35h252v121q-244 45 -376 183.5t-132 347.5q0 246 187.5 396t497 150t496.5 -150.5
t187 -395.5q0 -207 -132 -346.5t-375 -184.5v-121h251z" />
    <glyph glyph-name="pi" unicode="&#x3c0;" horiz-adv-x="1124" 
d="M819 337q-1 -167 15 -218t74 -51t84 55t26 186h51q0 -330 -217 -329q-133 0 -178 108q-33 84 -33 309l8 377h-280q0 -459 -27 -602q-39 -193 -164 -192q-94 0 -125 98q-18 55 -18 176h49q2 -106 76 -107q92 -1 124 141t35 486h-45q-158 0 -178 -106h-47q8 143 81 197
t245 55h520q135 0 135 45v2h47v-6q0 -102 -46 -144.5t-154 -42.5q-34 -2 -50 0q-8 -270 -8 -437z" />
    <glyph glyph-name="endash" unicode="&#x2013;" horiz-adv-x="1730" 
d="M1591 543h-1468v223h1468v-223z" />
    <glyph glyph-name="emdash" unicode="&#x2014;" horiz-adv-x="1996" 
d="M1874 543h-1751v223h1751v-223z" />
    <glyph glyph-name="quoteleft" unicode="&#x2018;" horiz-adv-x="563" 
d="M440 979h-317v281q0 223 256 223h47v-121q-154 -2 -154 -86v-74h168v-223z" />
    <glyph glyph-name="quoteright" unicode="&#x2019;" horiz-adv-x="563" 
d="M440 1202q0 -223 -256 -223h-47v121q154 0 154 86v74h-168v223h317v-281z" />
    <glyph glyph-name="quotesinglbase" unicode="&#x201a;" horiz-adv-x="747" 
d="M532 -57q0 -223 -256 -224h-47v121q154 2 154 86v74h-168v223h317v-280z" />
    <glyph glyph-name="quotedblleft" unicode="&#x201c;" horiz-adv-x="1050" 
d="M440 979h-317v281q0 223 256 223h47v-121q-154 -2 -154 -86v-74h168v-223zM928 979h-318v281q0 223 256 223h47v-121q-154 -2 -153 -86v-74h168v-223z" />
    <glyph glyph-name="quotedblright" unicode="&#x201d;" horiz-adv-x="1050" 
d="M440 1202q0 -223 -256 -223h-47v121q154 0 154 86v74h-168v223h317v-281zM928 1202q0 -223 -256 -223h-47v121q154 0 153 86v74h-168v223h318v-281z" />
    <glyph glyph-name="quotedblbase" unicode="&#x201e;" horiz-adv-x="1214" 
d="M532 -57q0 -223 -256 -224h-47v121q154 2 154 86v74h-168v223h317v-280zM999 -57q0 -223 -256 -224h-47v121q154 2 154 86v74h-168v223h317v-280z" />
    <glyph glyph-name="dagger" unicode="&#x2020;" horiz-adv-x="921" 
d="M844 975h-301l49 -1122h-266l43 1122h-310v207h299l-36 442h270l-41 -442h293v-207z" />
    <glyph glyph-name="daggerdbl" unicode="&#x2021;" horiz-adv-x="976" 
d="M864 287h-272l20 -434h-266l16 434h-282v207h289l20 481h-309v207h299l-37 442h270l-41 -442h293v-207h-301l21 -481h280v-207z" />
    <glyph glyph-name="bullet" unicode="&#x2022;" horiz-adv-x="1089" 
d="M918 727q0 -143 -108 -247t-262 -104.5t-264 102.5q-110 104 -110 248t108 248t264 105q156 -1 264 -105t108 -247z" />
    <glyph glyph-name="ellipsis" unicode="&#x2026;" horiz-adv-x="1607" 
d="M727 1049q-168 0 -261 -53.5t-93 -140.5t93 -140t255 -53q305 -1 448 194q-119 193 -442 193zM125 848q0 195 168 312.5t452 117.5q334 0 536 -180t202 -470t-226 -474q-211 -176 -514 -177q-381 0 -579 193l172 168q188 -137 403 -137t353.5 116.5t138.5 300.5
q0 15 -2 31q-207 -197 -527 -196q-254 0 -415.5 113.5t-161.5 281.5z" />
    <glyph glyph-name="perthousand" unicode="&#x2030;" horiz-adv-x="3221" 
d="M702 1110q0 84 -55 141.5t-138 57.5t-139.5 -57.5t-56.5 -141.5t57.5 -141.5t139.5 -57.5t137 57.5t55 141.5zM1909 375q0 84 -56.5 141t-139.5 57t-139 -57t-56 -141t57 -141.5t139 -57.5t138.5 57.5t56.5 141.5zM2877 375q0 84 -55 141t-138 57t-139.5 -57t-56.5 -141
t57.5 -141.5t139.5 -57.5t137 57.5t55 141.5zM922 1111q0 -167 -122 -284.5t-292 -117.5t-291 116.5t-121 284.5t122 285.5t291 117.5t291 -117.5t122 -284.5zM1913 1483l-1323 -1503h-281l1325 1503h279zM2128 375q0 -168 -122 -286t-292 -118t-292 118t-122 286t122 285.5
t292 117.5t292 -117.5t122 -285.5zM3097 375q0 -168 -122 -286t-291 -118t-291 118t-122 286t122 285.5t291 117.5t291 -117.5t122 -285.5z" />
    <glyph glyph-name="guilsinglleft" unicode="&#x2039;" horiz-adv-x="942" 
d="M793 991l-330 -334l325 -331h-301l-337 331l346 334h297z" />
    <glyph glyph-name="guilsinglright" unicode="&#x203a;" horiz-adv-x="942" 
d="M793 657l-338 -331h-301l325 331l-329 334h296z" />
    <glyph glyph-name="fraction" unicode="&#x2044;" horiz-adv-x="602" 
d="M1104 1483l-1325 -1503h-281l1327 1503h279z" />
    <glyph glyph-name="trademark" unicode="&#x2122;" horiz-adv-x="837" 
d="M313 1395h-104v-273h-84v273h-105v67h293v-67zM770 1122h-80v256l-94 -256h-37l-96 256v-256h-82v340h119l80 -205l73 205h117v-340z" />
    <glyph glyph-name="partialdiff" unicode="&#x2202;" horiz-adv-x="1011" 
d="M524 715q-106 0 -176 -122t-69 -331q0 -244 172 -244q106 0 176.5 126t70.5 315q0 256 -174 256zM758 891q0 342 -129 342q-41 0 -103.5 -71.5t-113.5 -71.5q-76 0 -76 65q0 57 59.5 101t149.5 44q158 0 252 -141q96 -150 96 -407q0 -340 -133 -560t-322 -219
q-137 1 -224 103t-87 278t108.5 300t256.5 124q178 0 241 -190q25 92 25 303z" />
    <glyph glyph-name="product" unicode="&#x220f;" horiz-adv-x="1685" 
d="M242 -377v1835h-181v66h1571v-66h-180v-1835h180v-65h-540v65h172v1835h-834v-1835h172v-65h-541v65h181z" />
    <glyph glyph-name="summation" unicode="&#x2211;" horiz-adv-x="1460" 
d="M686 1458h-291l666 -913l-735 -807h434q233 0 342 58t180 245h72q-20 -88 -109 -483h-1171l815 893l-787 1073h1127l67 -471h-69q-68 221 -188.5 313t-352.5 92z" />
    <glyph glyph-name="radical" unicode="&#x221a;" horiz-adv-x="1124" 
d="M1217 1565h-117l-594 -1606h-66l-319 883l-125 -45l-25 80l283 98l256 -709l516 1395h191v-96z" />
    <glyph glyph-name="infinity" unicode="&#x221e;" horiz-adv-x="1460" 
d="M1061 365q104 0 171.5 71.5t67.5 185.5t-61 182t-164 68q-158 1 -305 -331q94 -176 291 -176zM399 860q-104 0 -171.5 -71.5t-67.5 -184t61.5 -182.5t153.5 -70q93 0 163 81t150 251q-96 176 -289 176zM428 233q-131 0 -225 106.5t-94 273.5t82.5 272.5t216.5 105.5
q186 0 303 -254q129 254 321 254q131 0 224.5 -106.5t93.5 -273.5t-82 -272.5t-215 -105.5q-190 0 -303 254q-133 -254 -322 -254z" />
    <glyph glyph-name="integral" unicode="&#x222b;" horiz-adv-x="561" 
d="M580 1550q72 0 118.5 -37.5t46.5 -99.5q0 -98 -100 -98q-59 0 -89 75.5t-60 75.5q-78 0 -99 -223q-6 -66 -24 -628t-97 -746q-102 -240 -294 -240q-72 0 -119 38t-47 100q0 96 100 96q59 0 90 -75t62 -75q74 0 96 224q8 91 24 637t97 737q100 239 295 239z" />
    <glyph glyph-name="approxequal" unicode="&#x2248;" horiz-adv-x="1124" 
d="M788 254q-66 0 -211 48t-249 48t-291 -133v141q182 117 323 117q74 0 164 -28t160 -49t115 -21q109 0 288 131v-143q-162 -111 -299 -111zM788 498q-68 0 -212 48t-228 48q-123 0 -311 -133v141q176 115 321 115q74 0 165 -28t175 -54q57 -14 101 -14q111 0 288 129v-142
q-166 -110 -299 -110z" />
    <glyph glyph-name="approxequal" unicode="&#x22f2;" horiz-adv-x="1124" 
d="M788 254q-66 0 -211 48t-249 48t-291 -133v141q182 117 323 117q74 0 164 -28t160 -49t115 -21q109 0 288 131v-143q-162 -111 -299 -111zM788 498q-68 0 -212 48t-228 48q-123 0 -311 -133v141q176 115 321 115q74 0 165 -28t175 -54q57 -14 101 -14q111 0 288 129v-142
q-166 -110 -299 -110z" />
    <glyph glyph-name="notequal" unicode="&#x2260;" horiz-adv-x="1124" 
d="M98 285v118h303l162 160h-465v119h572l239 240l82 -82l-160 -158h195v-119h-301l-162 -160h463v-118h-571l-240 -240l-80 82l158 158h-195z" />
    <glyph glyph-name="lessequal" unicode="&#x2264;" horiz-adv-x="1124" 
d="M94 0v127h936v-127h-936zM96 553v125l934 293v-131l-719 -226l719 -223v-131z" />
    <glyph glyph-name="greaterequal" unicode="&#x2265;" horiz-adv-x="1124" 
d="M94 0v127h936v-127h-936zM94 260v131l719 223l-719 226v131l936 -293v-125z" />
    <glyph glyph-name="lozenge" unicode="&#x25ca;" horiz-adv-x="1011" 
d="M506 1409l-385 -817l385 -825l385 825zM506 1653l500 -1061l-500 -1069l-500 1069z" />
    <glyph glyph-name="fi" unicode="&#xf001;" horiz-adv-x="2250" 
d="M1524 1036h-1063v-270h739v-223h-739v-543h-246v1260h1309v-224zM2036 0h-246v1260h246v-1260z" />
    <glyph glyph-name="fl" unicode="&#xf002;" horiz-adv-x="3059" 
d="M1524 1036h-1063v-270h739v-223h-739v-543h-246v1260h1309v-224zM3009 0h-1219v1260h246v-1037h973v-223z" />
    <glyph glyph-name="glyph246" horiz-adv-x="614" 
 />
    </font>
</defs>
</svg>
